[Цитировать]
Kryl

Фильм «Prepare yourself for the flight of your life!» Фильм- Информация
Название: Лангольеры
Оригинальное название: The Langoliers
Год выхода: 1995
Жанр: фантастика, триллер, драма, детектив, экранизация
Режиссер: Том Холланд
Сценарий: Том Холланд, Стивен Кинг
Продюсер: Митчелл Галин, Майкл Горник, Дэвид Р. Каппес
В ролях: Дэвид Морс, Дин Стокуэлл, Бакстер Харрис, Бронсон Пинчот, Патриция Уэттиг, Кристофер Коллет, Кимберли Риддл, Фрэнки Фэйзон, Марк Линдсей Чапман, Майкл Лоуден, Дэвид Форрестер, Крис Хендри, Дженнифер Николь Портер, Кейт Маберли, Том Холленд, Стивен Кинг
--Сюжет:
Пассажиры самолета, летящего в Бостон из Лос-Анджелеса, попадают в «дыру во времени» и оказываются в ином мире, переживая невероятные приключения. Удастся ли им вернуться назад…- Страна: США
Продолжительность: 02:59:58

Файл
Кодек: MPEG4/ISO/AVC H.264
Формат: MKV
Качество: DVDRip | 60 fps
Видео: 704 x 528 (1.333) | 59.940 fps | 4.0 Мбит/сек
Аудио 1: AC3 | 2.0 | 48 kHz | 192 kbps | 16 bit | (многоголосый, закадровый) Селена International |
Аудио 2: AC3 | 2.0 | 48 kHz | 256 kbps | 16 bit | (многоголосый, закадровый) ТВ-3 |
Аудио 3: AC3 | 2.0 | 48 kHz | 192 kbps | 16 bit | ENG |

MedifInfo

Видео
Идентификатор : 1
Формат : AVC
Формат/Информация : Advanced Video Codec
Профиль формата : High@L4.1
Параметр CABAC формата : Да
Параметр ReFrames формата : 5 кадров
Идентификатор кодека : V_MPEG4/ISO/AVC
Продолжительность : 2 ч. 59 м.
Битрейт : 3999 Кбит/сек
Ширина : 704 пикселя
Высота : 528 пикселей
Соотношение сторон : 4:3
Режим частоты кадров : Постоянный
Частота кадров : 59,880 кадров/сек
Частота кадров в оригинале : 59,940 кадров/сек
Цветовое пространство : YUV
Субдискретизация насыщенности : 4:2:0
Битовая глубина : 8 бит
Тип развёртки : Прогрессивная
Бит/(Пиксели*Кадры) : 0.180
Размер потока : 4,92 Гбайт (84%)
Заголовок : www.60-fps.org
Библиотека кодирования : x264 core 148 r2638 7599210
Настройки программы : cabac=1 / ref=5 / deblock=1:-3:-3 / analyse=0x3:0x113 / me=umh / subme=8 / psy=1 / psy_rd=1.00:0.25 / mixed_ref=1 / me_range=32 / chroma_me=1 / trellis=1 / 8x8dct=1 / cqm=0 / deadzone=6,6 / fast_pskip=1 / chroma_qp_offset=-4 / threads=12 / lookahead_threads=2 / sliced_threads=0 / nr=0 / decimate=0 / interlaced=0 / bluray_compat=0 / constrained_intra=0 / bframes=3 / b_pyramid=2 / b_adapt=2 / b_bias=0 / direct=3 / weightb=1 / open_gop=0 / weightp=2 / keyint=599 / keyint_min=59 / scenecut=40 / intra_refresh=0 / rc_lookahead=50 / rc=2pass / mbtree=1 / bitrate=3999 / ratetol=1.0 / qcomp=0.80 / qpmin=0 / qpmax=69 / qpstep=4 / cplxblur=20.0 / qblur=0.5 / vbv_maxrate=62500 / vbv_bufsize=78125 / nal_hrd=none / filler=0 / ip_ratio=1.10 / aq=1:0.50
Default : Да
Forced : Нет
Аудио #1
Идентификатор : 2
Формат : AC-3
Формат/Информация : Audio Coding 3
Расширение режима : CM (complete main)
Параметр Endianness формата : Big
Идентификатор кодека : A_AC3
Продолжительность : 2 ч. 59 м.
Вид битрейта : Постоянный
Битрейт : 192 Кбит/сек
Каналы : 2 канала
Расположение каналов : Front: L R
Частота : 48,0 КГц
Битовая глубина : 16 бит
Метод сжатия : С потерями
Размер потока : 247 Мбайт (4%)
Заголовок : Селена International
Default : Да
Forced : Нет
Аудио #2
Идентификатор : 3
Формат : AC-3
Формат/Информация : Audio Coding 3
Расширение режима : CM (complete main)
Параметр Endianness формата : Big
Идентификатор кодека : A_AC3
Продолжительность : 2 ч. 59 м.
Вид битрейта : Постоянный
Битрейт : 256 Кбит/сек
Каналы : 2 канала
Расположение каналов : Front: L R
Частота : 48,0 КГц
Битовая глубина : 16 бит
Метод сжатия : С потерями
Размер потока : 330 Мбайт (6%)
Заголовок : ТВ-3
Default : Нет
Forced : Нет
Аудио #3
Идентификатор : 4
Формат : AC-3
Формат/Информация : Audio Coding 3
Расширение режима : CM (complete main)
Параметр Endianness формата : Big
Идентификатор кодека : A_AC3
Продолжительность : 2 ч. 59 м.
Вид битрейта : Постоянный
Битрейт : 192 Кбит/сек
Каналы : 2 канала
Расположение каналов : Front: L R
Частота : 48,0 КГц
Битовая глубина : 16 бит
Метод сжатия : С потерями
Размер потока : 247 Мбайт (4%)
Заголовок : Eng
Default : Нет
Forced : Нет
Киношка сделана по заказу пользователя
вячеслав

Релиз подготовлен 60 - fps

[Цитировать]
Dima52

Вот это классный фильм по Кингу!!! Уважуха, давно я его не смотрел! Побольше фильмов с Кингом! Спасибо!!! Подмигиваю

[Цитировать]
envy

Kryl, Вот этот фильм просто супер!!!
В детстве помню побаивался его смотреть, а потом раза 4 пересматриват.
Реально спасибо!!!!
Фильм интересный рекомендую к просмотру!!!

[Цитировать]
Kryl

5861Kryl, Вот этот фильм просто супер!!!
В детстве помню побаивался его смотреть, а потом раза 4 пересматриват.
Реально спасибо!!!!
Фильм интересный рекомендую к просмотру!!!
Не мне спасибо , а человеку который заказал Улыбаюсь

[Цитировать]
envy

Kryl, И ему спасибо!
Фильм стоящий!!!

[Цитировать]
HANNIBAL_68

Фильм Злой
 
Показать сообщения:    

Текущее время: 09-Дек 22:24

Часовой пояс: UTC + 3


Вы не можете начинать темы
Вы не можете отвечать на сообщения
Вы не можете редактировать свои сообщения
Вы не можете удалять свои сообщения
Вы не можете голосовать в опросах
Вы не можете прикреплять файлы к сообщениям
Вы не можете скачивать файлы