[Цитировать]
Kryl

-Lady Gaga - Til It Happens To You (2015) Master 1080p | 60 fps- -Информация о Клипе
Исполнитель: Lady Gaga
Название: Til It Happens To You
Год выхода: 2015
Продолжительность: 00:05:34
-Описание:
Клип и песня Til It Happens To You носят глубокий социальный подтекст и посвящены проблемам насилия в американских колледжах и студенческих городках. Режиссером музыкального ролика стала Кэтрин Хардвик, которая снимала «Сумерки», а режиссером выступила композитор Дайан Уоррен, обладательница «Золотого глобуса» за песню Шер в мюзикле «Бурлеск».
-Файл
Кодек: MPEG4 | ISO/AVC | H.264 | High@L4.2
Формат: MKV
Качество: Master 1080p | 60 fps
Видео : 1920 x 648 (2.963) | 59.940 fps 15.0 Мбит/сек
Аудио : DTS | 1413 Кбит/сек | 48.0 KHz | 2.0 channels

MediaInfo

Видео
Идентификатор : 1
Формат : AVC
Формат/Информация : Advanced Video Codec
Профиль формата : High@L4.2
Параметр CABAC формата : Да
Параметр ReFrames формата : 3 кадра
Параметр GOP формата : M=3, N=72
Идентификатор кодека : V_MPEG4/ISO/AVC
Продолжительность : 5 м. 34 с.
Вид битрейта : Переменный
Битрейт : 12,8 Мбит/сек
Максимальный битрейт : 15,0 Мбит/сек
Ширина : 1920 пикселей
Высота : 648 пикселей
Соотношение сторон : 2,963
Режим частоты кадров : Постоянный
Частота кадров : 59,880 кадров/сек
Частота кадров в оригинале : 59,940 кадров/сек
Стандарт вещания : PAL
Цветовое пространство : YUV
Субдискретизация насыщенности : 4:2:0
Битовая глубина : 8 бит
Тип развёртки : Прогрессивная
Бит/(Пиксели*Кадры) : 0.172
Размер потока : 511 Мбайт (88%)
Заголовок : www.60-fps.org
Язык : English
Default : Да
Forced : Нет
Основные цвета : BT.709
Характеристики трансфера : BT.709
Коэффициенты матрицы : BT.709
colour_range : Limited
Аудио
Идентификатор : 2
Формат : DTS
Формат/Информация : Digital Theater Systems
Режим : 16
Параметр Endianness формата : Big
Идентификатор кодека : A_DTS
Продолжительность : 5 м. 34 с.
Вид битрейта : Постоянный
Битрейт : 1413 Кбит/сек
Каналы : 2 канала
Расположение каналов : Front: L R
Частота : 48,0 КГц
Битовая глубина : 16 бит
Метод сжатия : С потерями
Задержка видео : 83 мс.
Размер потока : 56,3 Мбайт (10%)
Заголовок : DTS
Язык : English
Default : Да
Forced : Нет
DURATION : 00:05:33.963000000
NUMBER_OF_FRAMES : 31309
NUMBER_OF_BYTES : 58986156
_STATISTICS_WRITING_APP : mkvmerge v7.6.0 ('Garden of Dreams') 32bit built on Feb 8 2015 12:51:39
_STATISTICS_WRITING_DATE_UTC : 2016-08-17 17:41:57
_STATISTICS_TAGS : BPS DURATION NUMBER_OF_FRAMES NUMBER_OF_BYTES

Релиз подготовлен 60 - fps

 
Показать сообщения:    

Текущее время: 07-Дек 19:26

Часовой пояс: UTC + 3


Вы не можете начинать темы
Вы не можете отвечать на сообщения
Вы не можете редактировать свои сообщения
Вы не можете удалять свои сообщения
Вы не можете голосовать в опросах
Вы не можете прикреплять файлы к сообщениям
Вы не можете скачивать файлы