[Цитировать]
Kryl

-Lady Gaga - The Edge of Glory (2011) HDTVRip 720p | 50 fps- Информация о Клипе
Исполнитель: Lady Gaga
Название: The Edge of Glory
Год выхода: 2011
Продолжительность: 00:05:19-Файл
Кодек: MPEG4/ISO/AVC/ H.264
Формат: TS
Качество: HDTVRip 1080p
Видео: 1280 x 720 (1.778) at 50.000 fps 13.8 Мбит/сек
Аудио: AC3 | 448 Кбит/сек | 48.0 KHz | 2 channels

MI

Видео
Идентификатор : 1650 (0x672)
Идентификатор меню : 1 (0x1)
Формат : AVC
Формат/Информация : Advanced Video Codec
Профиль формата : Main@L4.0
Параметр CABAC формата : Да
Параметр ReFrames формата : 4 кадра
Идентификатор кодека : 27
Продолжительность : 5 м. 19 с.
Битрейт : 13,8 Мбит/сек
Ширина : 1280 пикселей
Высота : 720 пикселей
Соотношение сторон : 16:9
Частота кадров : 50,000 кадров/сек
Цветовое пространство : YUV
Субдискретизация насыщенности : 4:2:0
Битовая глубина : 8 бит
Тип развёртки : Прогрессивная
Бит/(Пиксели*Кадры) : 0.300
Размер потока : 527 Мбайт (92%)
Аудио
Идентификатор : 1652 (0x674)
Идентификатор меню : 1 (0x1)
Формат : AC-3
Формат/Информация : Audio Coding 3
Расширение режима : CM (complete main)
Параметр Endianness формата : Big
Идентификатор кодека : 6
Продолжительность : 5 м. 19 с.
Вид битрейта : Постоянный
Битрейт : 448 Кбит/сек
Каналы : 6 каналов
Расположение каналов : Front: L C R, Side: L R, LFE
Частота : 48,0 КГц
Битовая глубина : 16 бит
Метод сжатия : С потерями
Размер потока : 17,1 Мбайт (3%)
Язык : Danish
Текст
Идентификатор : 1659 (0x67B)-100
Идентификатор меню : 1 (0x1)
Формат : Teletext
Язык : Danish
Меню
Идентификатор : 256 (0x100)
Идентификатор меню : 1 (0x1)
Продолжительность : 5 м. 19 с.
Список : 1650 (0x672) (AVC) / 1652 (0x674) (AC-3, Danish) / 1659 (0x67B) ()
Язык : / Danish

[Цитировать]
huligan2121

почему нет ссылки для скачивания?
 
Показать сообщения:    

Текущее время: 22-Июл 19:43

Часовой пояс: UTC + 3


Вы не можете начинать темы
Вы не можете отвечать на сообщения
Вы не можете редактировать свои сообщения
Вы не можете удалять свои сообщения
Вы не можете голосовать в опросах
Вы не можете прикреплять файлы к сообщениям
Вы не можете скачивать файлы