Jennifer Lopez ft. Iggy Azalea - Booty (2014) Full HD 1080p | 60 fps Britney Spears - ...Baby One More Time (2009) Full HD 1080p | 60 fps Nicki Minaj - Anaconda (2014) BDRip 1080p | 60 fps Rammstein (БЕЗ ЦЕНЗУРЫ)| WEBRip 1080p | 60 fps The Prodigy - Live World's On Fire (2011) Blu-Ray 1080p | 72 fps Britney Spears - Oops! I Did It Again Uncut (2009) HD 1080p | 60 fps Depeche Mode - Live Spirits (2020) BDRip 1080p | 60 fps Philizz - Video Yearmix (2019) Full HD 1080p | 60 fps
  1. Longevity:
    6 years 5 months
    Posts:
    2414
    Gender:
    Male
    -Lady Gaga - Telephone ft. Beyonce (2010) Full HD 1080p | 60 fps- -Информация
    Исполнитель: Lady Gaga
    Название: Telephone ft. Beyonce
    Год выхода: 2010
    Продолжительность: 00:09:30
    -Файл
    Кодек: MPEG4 | ISO/AVC | H.264 | [email protected]
    Формат: MKV
    Качество: Full HD 1080p | 60 fps
    Видео : 1920 x 1080 (1.778) | 60.000 fps 20.0 Мбит/сек
    Аудио : DTS | 1413 Кбит/сек | 48.0 KHz | 2.0 channels

    MediaInfo

    Видео
    Идентификатор : 1
    Формат : AVC
    Формат/Информация : Advanced Video Codec
    Профиль формата : [email protected]
    Параметр CABAC формата : Да
    Параметр ReFrames формата : 3 кадра
    Идентификатор кодека : V_MPEG4/ISO/AVC
    Продолжительность : 9 м. 30 с.
    Вид битрейта : Переменный
    Битрейт : 19,5 Мбит/сек
    Максимальный битрейт : 20,0 Мбит/сек
    Ширина : 1920 пикселей
    Высота : 1080 пикселей
    Соотношение сторон : 16:9
    Режим частоты кадров : Постоянный
    Частота кадров : 60,000 кадров/сек
    Стандарт вещания : PAL
    Цветовое пространство : YUV
    Субдискретизация насыщенности : 4:2:0
    Битовая глубина : 8 бит
    Тип развёртки : Прогрессивная
    Бит/(Пиксели*Кадры) : 0.156
    Размер потока : 1,29 Гбайт (91%)
    Заголовок : www.60-fps.org
    Язык : English
    Default : Да
    Forced : Нет
    Основные цвета : BT.709
    Характеристики трансфера : BT.709
    Коэффициенты матрицы : BT.709
    colour_range : Limited
    Аудио
    Идентификатор : 2
    Формат : DTS
    Формат/Информация : Digital Theater Systems
    Режим : 16
    Параметр Endianness формата : Big
    Идентификатор кодека : A_DTS
    Продолжительность : 9 м. 30 с.
    Вид битрейта : Постоянный
    Битрейт : 1413 Кбит/сек
    Каналы : 2 канала
    Расположение каналов : Front: L R
    Частота : 48,0 КГц
    Битовая глубина : 16 бит
    Метод сжатия : С потерями
    Задержка видео : 80 мс.
    Размер потока : 96,1 Мбайт (7%)
    Default : Да
    Forced : Нет
    DURATION : 00:09:30.230000000
    NUMBER_OF_FRAMES : 53459
    NUMBER_OF_BYTES : 100716756
    _STATISTICS_WRITING_APP : mkvmerge v7.6.0 ('Garden of Dreams') 32bit built on Feb 8 2015 12:51:39
    _STATISTICS_WRITING_DATE_UTC : 2017-04-09 10:09:10
    _STATISTICS_TAGS : BPS DURATION NUMBER_OF_FRAMES NUMBER_OF_BYTES

    Release was prepared by 60-fps.org

  2. Longevity:
    3 years 10 months
    Posts:
    1
    Gender:
    Unknown
    Автору раздачи спасибо !
    19-Apr-2017 16:38 (after 10 days)


You cannot post new topics in this forum
You cannot reply to topics in this forum
You cannot edit your posts in this forum
You cannot delete your posts in this forum
You cannot vote in polls in this forum
You cannot attach files in this forum
You cannot download files in this forum