Rammstein (БЕЗ ЦЕНЗУРЫ)| WEBRip 1080p | 60 fps Britney Spears - Oops! I Did It Again Uncut (2009) HD 1080p | 60 fps BLACKPINK | WEBRip 1080p | 60 fps Jennifer Lopez ft. Iggy Azalea - Booty (2014) Full HD 1080p | 60 fps Britney Spears - Criminal (2011) BDRip 1080p | 60 fps Britney Spears - ...Baby One More Time (2009) Full HD 1080p | 60 fps Lady Gaga - Poker Face (2009) Full HD 1080p | 60 fps Sia - Chandelier (2014 ) Full HD 1080p | 60 fps
  1. Longevity:
    6 years
    Posts:
    2419
    Gender:
    Male
    -Lady Gaga - Poker Face (2009) Full HD 1080p | 60 fps- -Информация
    Исполнитель: Lady Gaga
    Название: Poker Face
    Год выхода: 2009
    Продолжительность: 00:03:57-Файл
    Кодек: MPEG4/ISO/AVC/H.264/High@L4.2
    Формат: MKV
    Качество: Full HD 1080p | 60 fps
    Видео : 1632 x 1072 (1.522)) | 59.940 fps 20.0 Мбит/сек
    Аудио : DTS | 1413 Кбит/сек | 48.0 KHz | 2.0 ch

    MediaInfo

    Видео
    Идентификатор : 1
    Формат : AVC
    Формат/Информация : Advanced Video Codec
    Профиль формата : High@L4.2
    Параметр CABAC формата : Да
    Параметр ReFrames формата : 3 кадра
    Идентификатор кодека : V_MPEG4/ISO/AVC
    Продолжительность : 3 м. 35 с.
    Вид битрейта : Переменный
    Битрейт : 19,5 Мбит/сек
    Максимальный битрейт : 20,0 Мбит/сек
    Ширина : 1632 пикселя
    Высота : 1072 пикселя
    Соотношение сторон : 3:2
    Режим частоты кадров : Постоянный
    Частота кадров : 60,000 кадров/сек
    Стандарт вещания : PAL
    Цветовое пространство : YUV
    Субдискретизация насыщенности : 4:2:0
    Битовая глубина : 8 бит
    Тип развёртки : Прогрессивная
    Бит/(Пиксели*Кадры) : 0.185
    Размер потока : 500 Мбайт (91%)
    Заголовок : www.60-fps.org
    Язык : English
    Default : Да
    Forced : Нет
    Основные цвета : BT.709
    Характеристики трансфера : BT.709
    Коэффициенты матрицы : BT.709
    colour_range : Limited
    Аудио
    Идентификатор : 2
    Формат : DTS
    Формат/Информация : Digital Theater Systems
    Режим : 16
    Параметр Endianness формата : Big
    Идентификатор кодека : A_DTS
    Продолжительность : 3 м. 35 с.
    Вид битрейта : Постоянный
    Битрейт : 1413 Кбит/сек
    Каналы : 2 канала
    Расположение каналов : Front: L R
    Частота : 48,0 КГц
    Битовая глубина : 16 бит
    Метод сжатия : С потерями
    Задержка видео : 80 мс.
    Размер потока : 36,3 Мбайт (7%)
    Язык : English
    Default : Да
    Forced : Нет
    DURATION : 00:03:35.606000000
    NUMBER_OF_FRAMES : 20213
    NUMBER_OF_BYTES : 38081292
    _STATISTICS_WRITING_APP : mkvmerge v7.6.0 ('Garden of Dreams') 32bit built on Feb 8 2015 12:51:39
    _STATISTICS_WRITING_DATE_UTC : 2016-10-25 20:57:31
    _STATISTICS_TAGS : BPS DURATION NUMBER_OF_FRAMES NUMBER_OF_BYTES

    Release was prepared by 60 - fps



    Last edited by Kryl on 2016-11-17 21:45; edited 1 time in total
  2. Longevity:
    4 years 1 month
    Posts:
    5
    Gender:
    Unknown
    Мне скучно Привет
    07-Nov-2016 10:04 (after 12 days)
  3. Longevity:
    5 years 4 months
    Posts:
    3
    Gender:
    Unknown
    Best Lady Gaga videoclip from 2009's. Thanks Пивасик
    15-Dec-2016 22:41 (after 1 month 8 days)
  4. Longevity:
    1 year 7 months
    Posts:
    16
    Gender:
    Unknown
    Сообщение появится после проверки модератором
    12-Mar-2019 21:37 (after 2 years 2 months)


You cannot post new topics in this forum
You cannot reply to topics in this forum
You cannot edit your posts in this forum
You cannot delete your posts in this forum
You cannot vote in polls in this forum
You cannot attach files in this forum
You cannot download files in this forum