Lady Gaga - Bad Romance (2009) Master | ProRes Lady Gaga - Poker Face (2009) Master | ProRes Jennifer Lopez - Waiting For Tonight (1999) 540p | Master | ProRes Lady Gaga - Paparazzi (2009) Master | ProRes Britney Spears - Hold It Against Me (2011) Master | ProRes Rihanna feat. Drake - Work (2016) Master | ProRes Lady Gaga - Born This Way (2011) Master | ProRes Rihanna - Shut Up And Drive (2007) Master | ProRes
  1. Longevity:
    5 years 2 months
    Posts:
    2418
    Gender:
    Male
    -Lady Gaga - Judas (2011) Master | ProRes --Информация о Клипе
    Исполнитель: Lady Gaga
    Название: Judas
    Год выхода: 2011
    Продолжительность: 00:05:34-Описание:
    «Judas» - песня американской исполнительницы Леди Гаги из её второго студийного альбома Born This Way. Мировая премьера песни состоялась 15 апреля 2011 года, за четыре дня до запланированного срока, из-за почти полной утечки песни в Интернет. Автором и продюсером «Judas» являются Леди Гага и RedOne. В песне говорится о женщине, влюблённой в мужчину, который предаёт её.
    Клип на эту песню был снят в начале апреля, со-режиссёром в нём выступили сама певица и Лориэнн Гибсон, роль второго плана исполнил актёр Норман Ридус. Ещё до выпуска песни католическая церковь осудила Гагу за использование в клипе религиозных образов и её роль Марии Магдалины и призвала певицу к «более разумным и уместным» образам, так как «это не единственный способ заработать славу».
    -Файл
    Кодек: APCH
    Контейнер: MOV
    Формат: ProRes
    Качество: Master
    Видео: 1920 x 1080 (1.778) | 23.976 fps | 163 Мбит/сек
    Аудио: PCM | 2304 Кбит/сек | 2.0 канала | 48.0 КГц | 24 бит

    MI

    Формат : MPEG-4
    Профиль формата : QuickTime
    Идентификатор кодека : qt
    Размер файла : 6,45 Гбайт
    Продолжительность : 5 м. 34 с.
    Режим общего битрейта : Переменный
    Общий поток : 166 Мбит/сек
    Дата кодирования : UTC 2011-05-02 14:45:28
    Дата пометки : UTC 2011-05-02 19:01:54
    Библиотека кодирования : Apple QuickTime 7.6.9
    com.apple.quicktime.player.movie.audio.m : (Binary)
    Media/UUID : 7B85D334-9651-49DE-A9AA-BB20A01E52F7
    Видео
    Идентификатор : 4
    Формат : ProRes
    Версия формата : Version 0
    Профиль формата : High
    Идентификатор кодека : apch
    Продолжительность : 5 м. 34 с.
    Продолжительность оригинала : 5 м. 34 с.
    Вид битрейта : Переменный
    Битрейт : 163 Мбит/сек
    Ширина : 1920 пикселей
    Высота : 1080 пикселей
    Соотношение сторон : 16:9
    Режим частоты кадров : Постоянный
    Частота кадров : 23,976 кадра/сек
    Цветовое пространство : YUV
    Субдискретизация насыщенности : 4:2:2
    Тип развёртки : Прогрессивная
    Бит/(Пиксели*Кадры) : 3.286
    Размер потока : 6,36 Гбайт (99%)
    Размер потока оригинала : 6,36 Гбайт (99%)
    Библиотека кодирования : Apple
    Язык : English
    Дата кодирования : UTC 2011-05-02 19:01:54
    Дата пометки : UTC 2011-05-02 19:01:54
    Коэффициенты матрицы : BT.709
    Аудио
    Идентификатор : 1
    Формат : PCM
    Параметр Endianness формата : Big
    Параметр Sign формата : Unsigned
    Идентификатор кодека : in24
    Продолжительность : 5 м. 34 с.
    Вид битрейта : Постоянный
    Битрейт : 2304 Кбит/сек
    Каналы : 2 канала
    Расположение каналов : Front: L R
    Частота : 48,0 КГц
    Битовая глубина : 24 бит
    Размер потока : 91,9 Мбайт (1%)
    Язык : English
    Дата кодирования : UTC 2011-05-02 14:45:28
    Дата пометки : UTC 2011-05-02 14:49:11
    Текст #1
    Идентификатор : 3-CC1
    Формат : EIA-608
    Режим смешивания : Final Cut / CDP
    Идентификатор кодека : c708
    Продолжительность : 5 м. 34 с.
    Вид битрейта : Постоянный
    Частота кадров : 23,976 кадра/сек
    Размер потока : 0,00 байт (0%)
    Язык : English
    Дата кодирования : UTC 2011-05-02 14:45:28
    Дата пометки : UTC 2011-05-02 14:49:11
    Текст #2
    Идентификатор : 3-1
    Формат : EIA-708
    Режим смешивания : Final Cut / CDP
    Идентификатор кодека : c708
    Продолжительность : 5 м. 34 с.
    Вид битрейта : Постоянный
    Частота кадров : 23,976 кадра/сек
    Размер потока : 0,00 байт (0%)
    Язык : English
    Дата кодирования : UTC 2011-05-02 14:45:28
    Дата пометки : UTC 2011-05-02 14:49:11

    Release was prepared by 60 - fps

  2. Longevity:
    4 years
    Posts:
    22
    Gender:
    Unknown
    Слишком большой размер,а главное не знаю на чём смотреть.Мне и на большой размер не жаль место,но всё же стандартный MKV было бы лучше делать!
    22-Jul-2017 13:23 (after 4 hours)
  3. Longevity:
    5 years 2 months
    Posts:
    2418
    Gender:
    Male
    8161Слишком большой размер,а главное не знаю на чём смотреть.Мне и на большой размер не жаль место,но всё же стандартный MKV было бы лучше делать!
    Это же исходник ))) то есть не перекодированный вариант видеопотока и звука .
    а по поводу mkv , то поиск ни кто не отменял
    https://60-fps.org/topic-lady_gaga_-_judas_2011_ful..._fps-t=2489.html
    25-Jul-2017 07:00 (after 2 days 17 hours)


You cannot post new topics in this forum
You cannot reply to topics in this forum
You cannot edit your posts in this forum
You cannot delete your posts in this forum
You cannot vote in polls in this forum
You cannot attach files in this forum
You cannot download files in this forum