Dan Balan - Chica Bomb (2010) WEBRip 1080p | 60 fps Britney Spears - Toxic (2004) HDTVRip 1080p | 60 fps Beyonce - Crazy In Love ft. JAY Z (2009) Full HD 1080p | 60 fps Britney Spears - Oops! I Did It Again Uncut (2009) HD 1080p | 60 fps Katy Perry - Hey Hey Hey (2017) WEBRip 1080p | 60 fps Jessie J, Ariana Grande, Nicki Minaj - Bang Bang ft. Ariana Grande, Nicki Minaj (2014) Full HD 1080p | 60 fps Spice Girls - Wannabe (1996) Full HD 1080p | 60 fps Britney Spears - Lucky (2009) Full HD 1080p | 60 fps
  1. Longevity:
    4 years 7 months
    Posts:
    2411
    Gender:
    Male
    --Lady Gaga - G.U.Y. - An ARTPOP Film (2014) WEBRip 1080p | 60 fps --Информация о Клипе
    Исполнитель: Lady Gaga
    Название: G.U.Y. - An ARTPOP Film
    Год выхода: 2014
    Продолжительность: 00:04:10-Файл
    Кодек: MPEG4/ISO/AVC/ H.264
    Формат: MKV
    Качество: WEBRip 1080p
    Видео: 1920 x 960 (2.000) at 59.940 fps 5.0 Мбит/сек
    Аудио: MP3 | MPEG Audio at 320 Кбит/сек| 44.1 KHz | 2 channels

    MI

    Видео
    Идентификатор : 1
    Формат : AVC
    Формат/Информация : Advanced Video Codec
    Профиль формата : High@L4.1
    Параметр CABAC формата : Да
    Параметр ReFrames формата : 4 кадра
    Идентификатор кодека : V_MPEG4/ISO/AVC
    Продолжительность : 4 м. 10 с.
    Битрейт : 4999 Кбит/сек
    Ширина : 1920 пикселей
    Высота : 960 пикселей
    Соотношение сторон : 2,000
    Режим частоты кадров : Постоянный
    Частота кадров : 59,880 кадров/сек
    Частота кадров в оригинале : 59,940 кадров/сек
    Цветовое пространство : YUV
    Субдискретизация насыщенности : 4:2:0
    Битовая глубина : 8 бит
    Тип развёртки : Прогрессивная
    Бит/(Пиксели*Кадры) : 0.045
    Размер потока : 146 Мбайт (92%)
    Заголовок : www.60-fps.org
    Библиотека кодирования : x264 core 129 r2245 bc13772
    Настройки программы : cabac=1 / ref=4 / deblock=1:-1:-1 / analyse=0x3:0x133 / me=esa / subme=9 / psy=1 / psy_rd=1.00:0.00 / mixed_ref=1 / me_range=32 / chroma_me=1 / trellis=2 / 8x8dct=1 / cqm=0 / deadzone=21,11 / fast_pskip=1 / chroma_qp_offset=-2 / threads=12 / lookahead_threads=2 / sliced_threads=0 / nr=0 / decimate=1 / interlaced=0 / bluray_compat=0 / constrained_intra=0 / bframes=3 / b_pyramid=2 / b_adapt=2 / b_bias=0 / direct=3 / weightb=1 / open_gop=0 / weightp=2 / keyint=599 / keyint_min=59 / scenecut=40 / intra_refresh=0 / rc_lookahead=60 / rc=2pass / mbtree=1 / bitrate=4999 / ratetol=1.0 / qcomp=0.60 / qpmin=0 / qpmax=69 / qpstep=4 / cplxblur=19.0 / qblur=0.0 / ip_ratio=1.40 / aq=1:1.00
    Язык : English
    Default : Нет
    Forced : Нет
    Аудио
    Идентификатор : 2
    Формат : MPEG Audio
    Версия формата : Version 1
    Профиль формата : Layer 3
    Режим : Joint stereo
    Расширение режима : MS Stereo
    Идентификатор кодека : A_MPEG/L3
    Идентификатор кодека/Подсказка : MP3
    Продолжительность : 4 м. 10 с.
    Вид битрейта : Постоянный
    Битрейт : 320 Кбит/сек
    Каналы : 2 канала
    Частота : 44,1 КГц
    Метод сжатия : С потерями
    Размер потока : 9,55 Мбайт (6%)
    Заголовок : www.60-fps.org
    Библиотека кодирования : LAME3.99.5
    Default : Да
    Forced : Нет
  2. Longevity:
    4 years 5 months
    Posts:
    48
    Gender:
    Unknown
    Класс) Спасибо) Вы только в 1080 р делаете ? или бывает и в 720 р?
    25-Dec-2014 19:23 (after 7 hours)
  3. Longevity:
    4 years 7 months
    Posts:
    2411
    Gender:
    Male
    стараюсь в 1080р ...
    25-Dec-2014 19:29 (after 5 minutes)
  4. Longevity:
    4 years 5 months
    Posts:
    48
    Gender:
    Unknown
    1292стараюсь в 1080р ...
    Хотелось увидеть ваши релизы и работы и в 720 р).
    25-Dec-2014 20:01 (after 32 minutes)
  5. Longevity:
    4 years 7 months
    Posts:
    2411
    Gender:
    Male
    да тут проблема в качестве исходника ....
    1080р не фонтан , а 720р ..............
    хотя можно дублировать .... один клип в двух разрешениях ...
    25-Dec-2014 20:14 (after 12 minutes)
  6. Longevity:
    3 years 8 months
    Posts:
    1
    Gender:
    Unknown
    torrent is not downloading.... please tell me the way to download,
    03-Sep-2015 16:14 (after 8 months 8 days)
  7. Longevity:
    2 years 6 months
    Posts:
    99
    Gender:
    Male
    Хотелось увидеть ваши релизы и работы и в 720 р).
    А зачем клипы в 720р? Они и так немного места занимают... На планшете смотреть? Смеюсь
    15-Nov-2016 18:02 (after 1 year 2 months)
  8. Longevity:
    2 years 6 months
    Posts:
    99
    Gender:
    Male
    Встаньте, пожалуйста, на раздачу...
    16-Nov-2016 08:28 (after 14 hours)


You cannot post new topics in this forum
You cannot reply to topics in this forum
You cannot edit your posts in this forum
You cannot delete your posts in this forum
You cannot vote in polls in this forum
You cannot attach files in this forum
You cannot download files in this forum