Lady Gaga - Bad Romance (2009) Master | ProRes Lady Gaga - Poker Face (2009) Master | ProRes Jennifer Lopez - Waiting For Tonight (1999) 540p | Master | ProRes Lady Gaga - Paparazzi (2009) Master | ProRes Britney Spears - Hold It Against Me (2011) Master | ProRes Rihanna feat. Drake - Work (2016) Master | ProRes Lady Gaga - Born This Way (2011) Master | ProRes Rihanna - Shut Up And Drive (2007) Master | ProRes
  1. Longevity:
    5 years 2 months
    Posts:
    2418
    Gender:
    Male
    -Lady Gaga - Born This Way (2011) Master | ProRes --Информация о Клипе
    Исполнитель: Lady Gaga
    Название: Born This Way
    Год выхода: 2011
    Продолжительность: 00:07:13-Описание:
    Видеоклип на композицию был снят в течение трёх дней, с 22 по 24 января 2011 года. Режиссёром видео стал знаменитый фотограф Ник Найт. Стилист певицы Никола Формичетти написал в своем блоге в Твиттере: «ОК, дети, будьте готовы к BTW. Мы только что создали самую удивительную вещь». В интервью «Billboard», Гага рассказала о видео, описав его, как «что-то… совершенно отличное от всего, что [она] делала раньше. […] Это будет рождением новой расы. Действительно глубокий материал». Хореограф видео Лориэн Гибсон рассказала MTV, что видеоклип — это «эксперимент по изменению жизни». Она также добавила, что «вы, конечно, можете ожидать более высокого уровня вокального и музыкального искусства и танца… Но вы всё равно будете шокированы».
    Lady Gaga в образе «Матери-Монстр», в прологе клипа, которая создаёт новую расу.
    Видео начинается с короткого эпизода в котором показывается силуэт единорога внутри розового треугольника. Далее появляется Леди Гага, которая сидит на стеклянном троне посреди космического пространства. Играет вступление Бернарда Херрманна из кинофильма Вертиго, и в это время Гага говорит: «Это манифест Мамы Монстра», — начиная повествовать об истории создания внеземной расы которая «не имеет никаких предрассудков, суждений, зато у всех безграничная свобода» (англ. «bears no prejudice, no judgment, but boundless freedom»). Мама Монстр показывается сидя на троне над планетой, широко расставив ноги, рождая каждого представителя «новой расы, которая заменит человечество» (англ. «new race within the race of humanity»). Но повествование продолжается, и Гага рассказывает, что в тот день, когда зародилась новая раса, родилось и зло. В результате рождения зла, Леди Гага раскалывается надвое на противоборствующие силы добра и зла. Её новая добрая половина рожает оружие и стреляет в «зло». Пролог заканчивается вопросом: «Как я могу защитить что-то столь совершенное, без зла?» (англ. «How can I protect something so perfect, without evil?»)
    Песня начинается с общего плана группы людей стоящих на четвереньках в бесконечности. Гага одета в чёрное нижнее бельё, на лице и плечах имеются заострённые выросты. Она начинает эксцентрично проходить между ними, после поднимает «лапку» и присоединяется к группе, тоже встав на четвереньки. Когда зазвучит первый куплет, Леди Гага и её танцоры начинают танцевать. Далее сцены чередуются: показывается Леди Гага танцующая вместе с подтанцовкой и поющая Гага на троне. В начале второго куплета певица появляется вместе с моделью Риком Дженестом (в образе «Парня Зомби»), оба они одеты в строгие поношенные смокинги, на лице Гаги нарисованы такие же тату, какие существуют на Рике, изображающие скелет человека. Гага пытается заигрывать с «Зомби», пробует станцевать с ним, но Дженест остаётся неподвижен. Когда начинается второй куплет, певица показывается в стеклянной комнате в костюме цвета кожи, на месте груди и между ног вставлены молнии. В конце песни певица и её танцоры собираются вкруг и обнимаются.
    В заключении в городском переулке появляется фигура, немного похожая на Майкла Джексона и в его перчатках. Далее показывается крупным планом лицо Леди Гаги, в образе весьма похожем на Мадонну: острые «рожки» над глазами и скулами, сверкающие глаза, торчащие в разные стороны волосы и заметная щербинка между передними зубами — она проливает одну слезу. Вновь появляется розовый треугольник, внутри которого виден силуэт Леди Гаги верхом на единороге, над которым сверкает радуга, а позади видны городские улицы. Окончательный эпизод изображает певицу в уже знакомом образе зомби (нарисованные кости скелета по всему тела, с идентичным тату, как у Рика Генеста). Надувая пузырь из жевательной резинки она слегка сдувает его, при этом выпучивая глаза.
    -Файл
    Кодек: APCH
    Контейнер: MP4
    Формат: ProRes
    Качество: Master
    Видео: 1888 x 1062 (1.778) | 23.976 fps | 151 Мбит/сек
    Аудио: PCM | 2304 Кбит/сек | 2.0 канала | 48.0 КГц | 24 бит

    MediaInfo

    Формат : MPEG-4
    Профиль формата : QuickTime
    Идентификатор кодека : qt
    Размер файла : 7,72 Гбайт
    Продолжительность : 7 м. 13 с.
    Режим общего битрейта : Переменный
    Общий поток : 153 Мбит/сек
    Дата кодирования : UTC 2011-02-27 05:14:46
    Дата пометки : UTC 2011-02-27 05:17:33
    Библиотека кодирования : Apple QuickTime
    Media/UUID : 30833285-57EE-41FE-966D-9FD83BF0289B
    Видео
    Идентификатор : 1
    Формат : ProRes
    Версия формата : Version 0
    Профиль формата : High
    Идентификатор кодека : apch
    Продолжительность : 7 м. 13 с.
    Вид битрейта : Переменный
    Битрейт : 151 Мбит/сек
    Ширина : 1888 пикселей
    Ширина оригинала : 1920 пикселей
    Высота : 1062 пикселя
    Высота оригинала : 1080 пикселей
    Соотношение сторон : 16:9
    Режим частоты кадров : Постоянный
    Частота кадров : 23,976 кадра/сек
    Цветовое пространство : YUV
    Субдискретизация насыщенности : 4:2:2
    Тип развёртки : Прогрессивная
    Бит/(Пиксели*Кадры) : 3.131
    Размер потока : 7,60 Гбайт (98%)
    Библиотека кодирования : Apple
    Язык : English
    Дата кодирования : UTC 2011-02-27 05:14:46
    Дата пометки : UTC 2011-02-27 05:17:33
    Основные цвета : BT.709
    Характеристики трансфера : BT.709
    Коэффициенты матрицы : BT.709
    Аудио
    Идентификатор : 2
    Формат : PCM
    Параметр Endianness формата : Little
    Параметр Sign формата : Unsigned
    Идентификатор кодека : in24
    Продолжительность : 7 м. 13 с.
    Вид битрейта : Постоянный
    Битрейт : 2304 Кбит/сек
    Каналы : 2 канала
    Расположение каналов : Front: L R
    Частота : 48,0 КГц
    Битовая глубина : 24 бит
    Размер потока : 119 Мбайт (2%)
    Язык : English
    Дата кодирования : UTC 2011-02-27 05:14:46
    Дата пометки : UTC 2011-02-27 05:17:33
    Прочее
    Идентификатор : 3
    Тип : Time code
    Формат : QuickTime TC
    Продолжительность : 7 м. 13 с.
    Временной код первого кадра : 00:59:57:07
    TimeCode_Striped/String : Да
    Язык : English
    Дата кодирования : UTC 2011-02-27 05:17:33
    Дата пометки : UTC 2011-02-27 05:17:33

    Release was prepared by 60 - fps

  2. Longevity:
    4 years
    Posts:
    22
    Gender:
    Unknown
    Господа делайте стандартные МКВ! Не знаю чем это всё смотреть!
    Грущу
    08-Sep-2017 14:38 (after 3 days)


You cannot post new topics in this forum
You cannot reply to topics in this forum
You cannot edit your posts in this forum
You cannot delete your posts in this forum
You cannot vote in polls in this forum
You cannot attach files in this forum
You cannot download files in this forum