Lady Gaga - Bad Romance (2009) Master | ProRes Lady Gaga - Poker Face (2009) Master | ProRes Jennifer Lopez - Waiting For Tonight (1999) 540p | Master | ProRes Lady Gaga - Paparazzi (2009) Master | ProRes Britney Spears - Hold It Against Me (2011) Master | ProRes Rihanna feat. Drake - Work (2016) Master | ProRes Lady Gaga - Born This Way (2011) Master | ProRes Rihanna - Shut Up And Drive (2007) Master | ProRes
  1. Longevity:
    5 years 2 months
    Posts:
    2418
    Gender:
    Male
    -Lady Gaga - Bad Romance (2009) Master | ProRes --Информация о Клипе
    Исполнитель: Lady Gaga
    Название: Bad Romance
    Год выхода: 2009
    Продолжительность: 00:04:50-Описание:
    «Bad Romance» (рус. Порочный Роман) - песня, написанная американской певицей Lady Gaga и спродюсированная RedOne. Песня была издана как лид-сингл к альбому «The Fame Monster». Композиция была написана под вдохновением, которое певица испытывала последние несколько лет, гастролируя по миру. Демо-версия композиции «утекла» в интернет до её официальной премьеры на «Парижской неделе моды» 6 октября 2009 года.
    Критики дали позитивную оценку композиции, сравнивая её с песней «Poker Face». Композиция возглавила чарты Великобритании, Ирландии, Канады, России, Швеции, Германии, Австрии и Дании добралась до второй строчки в чартах США, Австралии и Новой Зеландии. Сингл также был отмечен премией «Грэмми» в номинации «Лучшее женское вокальное поп-исполнение».
    Видеоклип на песню был снят в белой ванной комнате, из которой Гагу похищает группа моделей, которые спаивают её и после продают мафии для сексуального рабства. Видео было восторженно встречено критиками, в основном из-за операторской работы и его новизны. Также критики особенно отметили его символический сюжет и способность шокировать публику. Видеоклип также получил премию «Грэмми» в номинации «Лучшее короткое музыкальное видео»
    Песня «Bad Romance» стала первой женской песней, которая получила бриллиантовую сертификацию в США, а после первой женской песней, которая получила 11 платин в этой же стране.
    -Файл
    Кодек: APCH
    Контейнер: MOV
    Формат: ProRes
    Качество: Master
    Видео: 720 x 480 (1.777) | 29.970 fps | 77.6 Мбит/сек
    Аудио: PCM | 2304 Кбит/сек | 2.0 канала | 48.0 КГц | 24 бит

    MediaInfo

    Видео
    Идентификатор : 1
    Формат : ProRes
    Версия формата : Version 0
    Профиль формата : High
    Идентификатор кодека : apch
    Продолжительность : 5 м. 45 с.
    Вид битрейта : Переменный
    Битрейт : 43,5 Мбит/сек
    Ширина : 720 пикселей
    Высота : 480 пикселей
    Соотношение сторон : 16:9
    Режим частоты кадров : Постоянный
    Частота кадров : 29,970 кадров/сек
    Стандарт вещания : NTSC
    Цветовое пространство : YUV
    Субдискретизация насыщенности : 4:2:2
    Тип развёртки : Прогрессивная
    Бит/(Пиксели*Кадры) : 4.197
    Размер потока : 1,75 Гбайт (95%)
    Заголовок : Обработчик псевдонимов Apple
    Библиотека кодирования : fmpg
    Язык : English
    Дата пометки : UTC 2017-03-24 13:41:25
    Коэффициенты матрицы : BT.601
    Аудио
    Идентификатор : 2
    Формат : PCM
    Параметр Endianness формата : Little
    Параметр Sign формата : Unsigned
    Идентификатор кодека : in24
    Продолжительность : 5 м. 45 с.
    Продолжительность оригинала : 5 м. 30 с.
    Вид битрейта : Постоянный
    Битрейт : 2304 Кбит/сек
    Каналы : 2 канала
    Расположение каналов : Front: L R
    Частота : 48,0 КГц
    Битовая глубина : 24 бит
    Размер потока : 94,8 Мбайт (5%)
    Размер потока оригинала : 90,7 Мбайт (5%)
    Заголовок : Обработчик псевдонимов Apple
    Язык : English
    Дата пометки : UTC 2017-03-24 13:41:28

    Release was prepared by 60 - fps

  2. Longevity:
    4 years 11 months
    Posts:
    4
    Gender:
    Unknown
    22-Nov-2017 18:59 (after 1 hour 8 minutes)
  3. Longevity:
    4 years 1 month
    Posts:
    22
    Gender:
    Unknown
    Хорошая мелодия,но переделаю в стандартный МКВ!
    22-Nov-2017 21:00 (after 2 hours)


You cannot post new topics in this forum
You cannot reply to topics in this forum
You cannot edit your posts in this forum
You cannot delete your posts in this forum
You cannot vote in polls in this forum
You cannot attach files in this forum
You cannot download files in this forum