1. Longevity:
    6 years 9 months
    Posts:
    2413
    Gender:
    Male
    -Lady Gaga - Alejandro (2010) Full HD 1080p | 60 fps- -Информация о Клипе
    Исполнитель: Lady Gaga
    Название: Alejandro
    Год выхода: 2010
    Продолжительность: 00:08:44-Файл
    Кодек: MPEG4/ISO/AVC/ H.264
    Формат: MKV
    Качество: Full HD 1080p | 60 fps
    Видео : 1920 x 1080 (16:9) at 59.940 fps 25.0Мбит/сек
    Аудио 1: AC-3 | 640 Кбит/сек | 48.0 KHz | 2.0 channels
    Аудио 2: DTS | 960 Кбит/сек | 48.0 KHz | 2.0 channels

    MI

    Общее
    Уникальный идентификатор : 228237110495761657433952876831213955018 (0xABB4DE5973913092BF659C6E18F927CA)
    Полное имя : H:\Clips\Lady Gaga - Alejandro.mkv
    Формат : Matroska
    Версия формата : Version 2
    Размер файла : 1,64 Гбайт
    Продолжительность : 8 м. 52 с.
    Общий поток : 26,5 Мбит/сек
    Дата кодирования : UTC 2021-06-20 05:20:57
    Программа кодирования : mkvmerge v5.8.0 ('No Sleep / Pillow') built on Sep 2 2012 15:37:04
    Библиотека кодирования : libebml v1.2.3 + libmatroska v1.3.0
    Видео
    Идентификатор : 1
    Формат : AVC
    Формат/Информация : Advanced Video Codec
    Профиль формата : [email protected]
    Параметр CABAC формата : Да
    Параметр ReFrames формата : 4 кадра
    Режим смешивания : Header stripping
    Идентификатор кодека : V_MPEG4/ISO/AVC
    Продолжительность : 8 м. 52 с.
    Битрейт : 25,0 Мбит/сек
    Ширина : 1920 пикселей
    Высота : 1080 пикселей
    Соотношение сторон : 16:9
    Режим частоты кадров : Постоянный
    Частота кадров : 59,940 (60000/1001) кадров/сек
    Цветовое пространство : YUV
    Субдискретизация насыщенности : 4:2:0
    Битовая глубина : 8 бит
    Тип развёртки : Прогрессивная
    Бит/(Пиксели*Кадры) : 0.201
    Размер потока : 1,51 Гбайт (92%)
    Библиотека кодирования : x264 core 146 r2538 121396c
    Настройки программы : cabac=1 / ref=4 / deblock=1:0:0 / analyse=0x3:0x113 / me=umh / subme=8 / psy=1 / psy_rd=1.00:0.25 / mixed_ref=1 / me_range=16 / chroma_me=1 / trellis=1 / 8x8dct=1 / cqm=0 / deadzone=6,6 / fast_pskip=1 / chroma_qp_offset=-4 / threads=12 / lookahead_threads=3 / sliced_threads=0 / nr=0 / decimate=0 / interlaced=0 / bluray_compat=0 / constrained_intra=0 / bframes=3 / b_pyramid=2 / b_adapt=2 / b_bias=0 / direct=3 / weightb=1 / open_gop=0 / weightp=2 / keyint=600 / keyint_min=60 / scenecut=40 / intra_refresh=0 / rc_lookahead=50 / rc=2pass / mbtree=1 / bitrate=25000 / ratetol=1.0 / qcomp=0.80 / qpmin=0 / qpmax=69 / qpstep=4 / cplxblur=20.0 / qblur=0.5 / vbv_maxrate=50000 / vbv_bufsize=50000 / nal_hrd=none / filler=0 / ip_ratio=1.10 / aq=1:0.50
    Язык : English
    Default : Да
    Forced : Нет
    Аудио #1
    Идентификатор : 2
    Формат : AC-3
    Формат/Информация : Audio Coding 3
    Расширение режима : CM (complete main)
    Параметр Endianness формата : Big
    Режим смешивания : Header stripping
    Идентификатор кодека : A_AC3
    Продолжительность : 8 м. 52 с.
    Вид битрейта : Постоянный
    Битрейт : 640 Кбит/сек
    Каналы : 2 канала
    Расположение каналов : Front: L R
    Частота : 44,1 КГц
    Частота кадров : 28,711 кадров/сек (1536 spf)
    Битовая глубина : 16 бит
    Метод сжатия : С потерями
    Размер потока : 40,6 Мбайт (2%)
    Default : Да
    Forced : Нет
    Аудио #2
    Идентификатор : 3
    Формат : DTS
    Формат/Информация : Digital Theater Systems
    Режим : 16
    Параметр Endianness формата : Big
    Режим смешивания : Header stripping
    Идентификатор кодека : A_DTS
    Продолжительность : 8 м. 52 с.
    Вид битрейта : Постоянный
    Битрейт : 1025 Кбит/сек
    Каналы : 2 канала
    Расположение каналов : Front: L R
    Частота : 44,1 КГц
    Частота кадров : 86,133 кадров/сек (512 spf)
    Битовая глубина : 16 бит
    Метод сжатия : С потерями
    Размер потока : 65,0 Мбайт (4%)
    Default : Нет
    Forced : Нет

    Release was prepared by 60-fps.org

  2. Longevity:
    3 years
    Posts:
    63
    Gender:
    Male
    Download torrent does not start please upload again
    19-Jun-2021 14:18 (after 5 years 6 months)
  3. Longevity:
    4 years 6 months
    Posts:
    268
    Gender:
    Male
    Updated. Please reload the torrent.
    20-Jun-2021 08:25 (after 18 hours)
  4. Longevity:
    3 years
    Posts:
    63
    Gender:
    Male
    12533Updated. Please reload the torrent.
    Thank you
    20-Jun-2021 15:00 (after 6 hours)


You cannot post new topics in this forum
You cannot reply to topics in this forum
You cannot edit your posts in this forum
You cannot delete your posts in this forum
You cannot vote in polls in this forum
You cannot attach files in this forum
You cannot download files in this forum