Богемская рапсодия /Bohemian Rhapsody (2018) BDRip 1080p | 60 fps Джон Уик / John Wick (2014) BDRip 720p | 60 fps Властелин колец: Трилогия / The Lord of the Rings: Trilogy (2001-2003) BDRip-AVC | Extended Cut | 60 fps Клаустрофобы / Escape Room (2019) BDRip 1080p | 60 fps Зеленая книга / Green Book (2018) BDRip 720p | 60 fps Битва за Землю / Captive State (2019) BDRip 1080p | 60 fps Снегоуборщик / Cold Pursuit (2019) BDRip 1080p | 60 fps Дамбо / Dumbo (2019) BDRip 1080p | 60 fps
  1. Longevity:
    4 years 11 months
    Posts:
    2417
    Gender:
    Male
    «Jim Henson, George Lucas and David Bowie take you into a dazzling world of fantasy and adventure» Информация
    Название: Лабиринт
    Оригинальное название: Labyrinth
    Год выхода: 1986
    Жанр: мюзикл, фэнтези, приключения, семейный
    Режиссер: Джим Хенсон
    Сценарий: Терри Джонс, Дэннис Ли, Джим Хенсон
    Продюсер: Эрик Рэттрэй, Мартин Дж. Бэйкер, Дэвид Лазер
    В ролях: Дэвид Боуи, Дженнифер Коннелли, Тоби Фрауд, Шелли Томпсон, Кристофер Малкольм, Натали Финленд, Шари Уайзер, Брайан Хенсон, Рон Мьюек, Роб Миллз

    Сюжет:
    За гранью сна и яви, в полной удивительных чудес волшебной стране жил да был король гоблинов Джарет. Однажды услыхал он, как девочка Сара в сердцах сказала несносному младшему брату Тоби: «Чтоб тебя гоблины унесли!» — и тут же поймал ее на слове, утащив малыша в свой замок! «Что же я наделала», — ахнула Сара и бросилась за Джаретом вдогонку, пока дверь в сказку не захлопнулась.
    Но чтобы попасть в замок похитителя и спасти брата, ей придется пройти зачарованный Лабиринт. Он полон всяких чудищ, хитрых ловушек и головоломок. А выход из него стережет целая армия гоблинов! Встречая на своем пути сонмы невиданных созданий и разгадывая странные загадки, Сара храбро углубляется в таинственный мир Лабиринта, шаг за шагом приближаясь к твердыне короля Джарета…

    Страна: Великобритания, США
    Продолжительность: 01:41:03

    Файл
    Кодек: H.264
    Формат: MKV
    Качество: BDRip 720p | 60 fps
    Видео: 1280 x 544 (2.353) | 59.940 fps | 10.0 Мбит/сек
    Аудио 01: AC3 | 5.1 | 48 kHz | 640 kbps | 16 bit | Профессиональный многоголосый закадровый - R5 |
    Аудио 02: AC3 | 5.1 | 48 kHz | 640 kbps | 16 bit | Профессиональный многоголосый закадровый - Superbit |
    Аудио 03: AC3 | 5.1 | 48 kHz | 640 kbps | 16 bit | Авторский одноголосый закадровый - Василий Горчаков |
    Аудио 04: AC3 | 5.1 | 48 kHz | 640 kbps | 16 bit | Авторский одноголосый закадровый - Андрей Гаврилов |
    Аудио 05: AC3 | 5.1 | 48 kHz | 640 kbps | 16 bit | english |
    Субтитры: Русские, английские

    MedifInfo

    Видео
    Идентификатор : 1
    Формат : AVC
    Формат/Информация : Advanced Video Codec
    Профиль формата : High@L4.1
    Параметр CABAC формата : Да
    Параметр ReFrames формата : 5 кадров
    Идентификатор кодека : V_MPEG4/ISO/AVC
    Продолжительность : 1 ч. 41 м.
    Битрейт : 9999 Кбит/сек
    Ширина : 1280 пикселей
    Высота : 544 пикселя
    Соотношение сторон : 2,35:1
    Режим частоты кадров : Постоянный
    Частота кадров : 59,880 кадров/сек
    Частота кадров в оригинале : 59,940 кадров/сек
    Цветовое пространство : YUV
    Субдискретизация насыщенности : 4:2:0
    Битовая глубина : 8 бит
    Тип развёртки : Прогрессивная
    Бит/(Пиксели*Кадры) : 0.240
    Размер потока : 6,87 Гбайт (75%)
    Заголовок : www.60-fps.org
    Библиотека кодирования : x264 core 152 r2851 ba24899
    Настройки программы : cabac=1 / ref=5 / deblock=1:-3:-3 / analyse=0x3:0x113 / me=hex / subme=8 / psy=1 / psy_rd=1.00:0.25 / mixed_ref=1 / me_range=16 / chroma_me=1 / trellis=2 / 8x8dct=1 / cqm=0 / deadzone=6,6 / fast_pskip=1 / chroma_qp_offset=-4 / threads=12 / lookahead_threads=2 / sliced_threads=0 / nr=0 / decimate=0 / interlaced=0 / bluray_compat=0 / constrained_intra=0 / bframes=3 / b_pyramid=2 / b_adapt=1 / b_bias=0 / direct=3 / weightb=1 / open_gop=0 / weightp=2 / keyint=599 / keyint_min=59 / scenecut=40 / intra_refresh=0 / rc_lookahead=50 / rc=2pass / mbtree=1 / bitrate=9999 / ratetol=1.0 / qcomp=0.80 / qpmin=0 / qpmax=69 / qpstep=4 / cplxblur=20.0 / qblur=0.5 / vbv_maxrate=62500 / vbv_bufsize=78125 / nal_hrd=none / filler=0 / ip_ratio=1.10 / aq=1:0.50
    Default : Да
    Forced : Нет
    Аудио #1
    Идентификатор : 2
    Формат : AC-3
    Формат/Информация : Audio Coding 3
    Расширение режима : CM (complete main)
    Параметр Endianness формата : Big
    Идентификатор кодека : A_AC3
    Продолжительность : 1 ч. 41 м.
    Вид битрейта : Постоянный
    Битрейт : 640 Кбит/сек
    Каналы : 6 каналов
    Расположение каналов : Front: L C R, Side: L R, LFE
    Частота : 48,0 КГц
    Битовая глубина : 16 бит
    Метод сжатия : С потерями
    Размер потока : 463 Мбайт (5%)
    Заголовок : Профессиональный (многоголосый, закадровый) R5
    Язык : Russian
    Default : Да
    Forced : Нет
    Аудио #2
    Идентификатор : 3
    Формат : AC-3
    Формат/Информация : Audio Coding 3
    Расширение режима : CM (complete main)
    Параметр Endianness формата : Big
    Идентификатор кодека : A_AC3
    Продолжительность : 1 ч. 41 м.
    Вид битрейта : Постоянный
    Битрейт : 640 Кбит/сек
    Каналы : 6 каналов
    Расположение каналов : Front: L C R, Side: L R, LFE
    Частота : 48,0 КГц
    Битовая глубина : 16 бит
    Метод сжатия : С потерями
    Размер потока : 463 Мбайт (5%)
    Заголовок : Профессиональный (многоголосый, закадровый) Superbit
    Язык : Russian
    Default : Нет
    Forced : Нет
    Аудио #3
    Идентификатор : 4
    Формат : AC-3
    Формат/Информация : Audio Coding 3
    Расширение режима : CM (complete main)
    Параметр Endianness формата : Big
    Идентификатор кодека : A_AC3
    Продолжительность : 1 ч. 41 м.
    Вид битрейта : Постоянный
    Битрейт : 640 Кбит/сек
    Каналы : 6 каналов
    Расположение каналов : Front: L C R, Side: L R, LFE
    Частота : 48,0 КГц
    Битовая глубина : 16 бит
    Метод сжатия : С потерями
    Размер потока : 463 Мбайт (5%)
    Заголовок : Авторский (одноголосый, закадровый) Василий Горчаков
    Язык : Russian
    Default : Нет
    Forced : Нет
    Аудио #4
    Идентификатор : 5
    Формат : AC-3
    Формат/Информация : Audio Coding 3
    Расширение режима : CM (complete main)
    Параметр Endianness формата : Big
    Идентификатор кодека : A_AC3
    Продолжительность : 1 ч. 41 м.
    Вид битрейта : Постоянный
    Битрейт : 448 Кбит/сек
    Каналы : 6 каналов
    Расположение каналов : Front: L C R, Side: L R, LFE
    Частота : 48,0 КГц
    Битовая глубина : 16 бит
    Метод сжатия : С потерями
    Размер потока : 324 Мбайт (3%)
    Заголовок : Авторский (одноголосый, закадровый) Андрей Гаврилов
    Язык : Russian
    Default : Нет
    Forced : Нет
    Аудио #5
    Идентификатор : 6
    Формат : AC-3
    Формат/Информация : Audio Coding 3
    Расширение режима : CM (complete main)
    Параметр Endianness формата : Big
    Идентификатор кодека : A_AC3
    Продолжительность : 1 ч. 41 м.
    Вид битрейта : Постоянный
    Битрейт : 640 Кбит/сек
    Каналы : 6 каналов
    Расположение каналов : Front: L C R, Side: L R, LFE
    Частота : 48,0 КГц
    Битовая глубина : 16 бит
    Метод сжатия : С потерями
    Размер потока : 463 Мбайт (5%)
    Заголовок : Original
    Язык : English
    Default : Нет
    Forced : Нет
    Текст #1
    Идентификатор : 7
    Формат : UTF-8
    Идентификатор кодека : S_TEXT/UTF8
    Идентификатор кодека/Информация : UTF-8 Plain Text
    Заголовок : Russian (forced)
    Язык : Russian
    Default : Да
    Forced : Да
    Текст #2
    Идентификатор : 8
    Формат : UTF-8
    Идентификатор кодека : S_TEXT/UTF8
    Идентификатор кодека/Информация : UTF-8 Plain Text
    Заголовок : Russian (full)
    Язык : Russian
    Default : Нет
    Forced : Нет
    Текст #3
    Идентификатор : 9
    Формат : UTF-8
    Идентификатор кодека : S_TEXT/UTF8
    Идентификатор кодека/Информация : UTF-8 Plain Text
    Заголовок : English
    Язык : English
    Default : Нет
    Forced : Нет
    Текст #4
    Идентификатор : 10
    Формат : UTF-8
    Идентификатор кодека : S_TEXT/UTF8
    Идентификатор кодека/Информация : UTF-8 Plain Text
    Заголовок : English (SDH)
    Язык : English
    Default : Нет
    Forced : Нет
    Текст #5
    Идентификатор : 11
    Формат : UTF-8
    Идентификатор кодека : S_TEXT/UTF8
    Идентификатор кодека/Информация : UTF-8 Plain Text
    Заголовок : English Comments
    Язык : English
    Default : Нет
    Forced : Нет
    Меню
    00:00:00.000 : en:00:00:00.000
    00:04:09.207 : en:00:04:09.207
    00:11:44.537 : en:00:11:44.537
    00:16:57.975 : en:00:16:57.975
    00:22:20.756 : en:00:22:20.756
    00:28:53.523 : en:00:28:53.523
    00:33:11.656 : en:00:33:11.656
    00:38:52.997 : en:00:38:52.997
    00:45:05.661 : en:00:45:05.661
    00:50:48.379 : en:00:50:48.379
    00:57:20.020 : en:00:57:20.020
    01:03:25.468 : en:01:03:25.468
    01:09:57.860 : en:01:09:57.860
    01:15:50.087 : en:01:15:50.087
    01:24:05.999 : en:01:24:05.999
    01:30:47.567 : en:01:30:47.567

    Release was prepared by 60 - fps

  2. Longevity:
    3 years 4 months
    Posts:
    3
    Gender:
    Unknown
    ВАУУУУ!!!! спасибище!!!!))))
    15-Feb-2018 23:13 (after 58 minutes)
  3. Longevity:
    1 year 10 months
    Posts:
    2
    Gender:
    Unknown
    Люблю этот фильм
    16-Feb-2018 14:00 (after 14 hours)
  4. Longevity:
    2 years 7 months
    Posts:
    8
    Gender:
    Male
    Спасибо это кино моего детства!!!! Класс!!!
    16-Feb-2018 22:00 (after 7 hours)
  5. Longevity:
    1 year 8 months
    Posts:
    6
    Gender:
    Unknown
    Доча в 6 лет влюбилась в Боуи
    01-Jul-2018 17:42 (after 4 months 14 days)
  6. Longevity:
    1 year 8 months
    Posts:
    6
    Gender:
    Unknown
    Хотелось бы еще Бесконечную Историю 1984 г. в 60 фпс поглядеть
    03-Jul-2018 08:17 (after 1 day 14 hours)
  7. Longevity:
    4 years 11 months
    Posts:
    2417
    Gender:
    Male
    9942Хотелось бы еще Бесконечную Историю 1984 г. в 60 фпс поглядеть
    Все пожелания, к сожалению, на платной основе..
    03-Jul-2018 09:51 (after 1 hour 34 minutes)
  8. Longevity:
    3 months 6 days
    Posts:
    1
    Gender:
    Unknown
    Сообщение появится после проверки модератором
    01-Sep-2019 09:35 (after 1 year 1 month)


You cannot post new topics in this forum
You cannot reply to topics in this forum
You cannot edit your posts in this forum
You cannot delete your posts in this forum
You cannot vote in polls in this forum
You cannot attach files in this forum
You cannot download files in this forum