[Цитировать]
Kryl

-Kylie Minogue - Timebomb (2012) Master | ProRes --Информация о Клипе
Исполнитель: Kylie Minogue
Название: Timebomb
Год выхода: 2012
Продолжительность: 00:03:36-Файл
Кодек: APCH
Контейнер: MOV
Формат: ProRes
Качество: Master
Видео: 1920 x 1080 (1.778) | 25.000 fps | 163 Мбит/сек
Аудио: PCM | 1536 Кбит/сек | 2.0 канала | 48.0 КГц | 24 бит

MediaInfo

Формат : MPEG-4
Профиль формата : QuickTime
Идентификатор кодека : qt
Размер файла : 4,63 Гбайт
Продолжительность : 3 м. 36 с.
Режим общего битрейта : Переменный
Общий поток : 184 Мбит/сек
Дата кодирования : UTC 2012-05-21 13:48:30
Дата пометки : UTC 2012-05-21 17:50:28
Библиотека кодирования : Apple QuickTime 7.7.2
com.apple.proapps.logNote : Untitled 01
com.apple.proapps.reel : 001
com.apple.proapps.scene : Scene 01
com.apple.proapps.shot : 01
com.apple.proapps.angle : 01
com.apple.quicktime.player.movie.audio.m : (Binary)
Видео
Идентификатор : 1
Формат : ProRes
Версия формата : Version 0
Профиль формата : High
Идентификатор кодека : apch
Продолжительность : 3 м. 36 с.
Продолжительность оригинала : 4 м. 5 с.
Вид битрейта : Переменный
Битрейт : 163 Мбит/сек
Ширина : 1920 пикселей
Высота : 1080 пикселей
Соотношение сторон : 16:9
Режим частоты кадров : Постоянный
Частота кадров : 25,000 кадров/сек
Цветовое пространство : YUV
Субдискретизация насыщенности : 4:2:2
Тип развёртки : Прогрессивная
Бит/(Пиксели*Кадры) : 3.147
Размер потока : 4,10 Гбайт (89%)
Размер потока оригинала : 4,59 Гбайт (99%)
Библиотека кодирования : Apple
Язык : English
Дата кодирования : UTC 2012-05-21 13:48:30
Дата пометки : UTC 2012-05-21 17:50:28
Коэффициенты матрицы : BT.709
Аудио
Идентификатор : 2
Формат : PCM
Параметр Endianness формата : Little
Параметр Sign формата : Signed
Идентификатор кодека : sowt
Продолжительность : 3 м. 36 с.
Продолжительность оригинала : 4 м. 5 с.
Вид битрейта : Постоянный
Битрейт : 1536 Кбит/сек
Каналы : 2 канала
Расположение каналов : Front: L R
Частота : 48,0 КГц
Битовая глубина : 16 бит
Размер потока : 39,6 Мбайт (1%)
Размер потока оригинала : 45,0 Мбайт (1%)
Язык : English
Дата кодирования : UTC 2012-05-21 13:48:30
Дата пометки : UTC 2012-05-21 17:50:28
Прочее
Идентификатор : 3
Тип : Time code
Формат : QuickTime TC
Продолжительность : 3 м. 36 с.
Временной код первого кадра : 09:59:30:00
TimeCode_Striped/String : Да
Заголовок : time
Язык : English
Дата кодирования : UTC 2012-05-21 13:48:30
Дата пометки : UTC 2012-05-21 17:50:28

Релиз подготовлен 60 - fps

 
Показать сообщения:    

Текущее время: 21-Сен 15:30

Часовой пояс: UTC + 3


Вы не можете начинать темы
Вы не можете отвечать на сообщения
Вы не можете редактировать свои сообщения
Вы не можете удалять свои сообщения
Вы не можете голосовать в опросах
Вы не можете прикреплять файлы к сообщениям
Вы не можете скачивать файлы