[Цитировать]
Kryl

-Kylie Minogue - Timebomb (2012) Master 1080p | 60 fps- Информация о Клипе
Исполнитель: Kylie Minogue
Название: Timebomb
Год выхода: 2012
Продолжительность: 00:03:39-Файл
Кодек: MPEG4/ISO/AVC/ H.264
Формат: MKV
Качество: MasterRip 1080p
Видео: 1920 x 820 (2.341) at 60.000 fps 20.6 Мбит/сек
Аудио: AC-3 | 640 Кбит/сек | 48.0 KHz | 2 channels
Аудио: DTS | 1413 Кбит/сек | 48.0 KHz | 2 channels

MI

Видео
Идентификатор : 1
Формат : AVC
Формат/Информация : Advanced Video Codec
Профиль формата : Main@L4.2
Параметр CABAC формата : Да
Параметр ReFrames формата : 3 кадра
Параметр GOP формата : M=4, N=60
Идентификатор кодека : V_MPEG4/ISO/AVC
Продолжительность : 3 м. 39 с.
Битрейт : 20,6 Мбит/сек
Ширина : 1920 пикселей
Высота : 820 пикселей
Соотношение сторон : 2,35:1
Режим частоты кадров : Постоянный
Частота кадров : 60,000 кадров/сек
Стандарт вещания : NTSC
Цветовое пространство : YUV
Субдискретизация насыщенности : 4:2:0
Битовая глубина : 8 бит
Тип развёртки : Прогрессивная
Бит/(Пиксели*Кадры) : 0.218
Размер потока : 538 Мбайт (89%)
Заголовок : www.60-fps.org
Язык : English
Default : Да
Forced : Нет
Основные цвета : BT.709
Характеристики трансфера : BT.709
Коэффициенты матрицы : BT.709
colour_range : Limited
Аудио #1
Идентификатор : 2
Формат : AC-3
Формат/Информация : Audio Coding 3
Расширение режима : CM (complete main)
Параметр Endianness формата : Big
Идентификатор кодека : A_AC3
Продолжительность : 3 м. 39 с.
Вид битрейта : Постоянный
Битрейт : 640 Кбит/сек
Каналы : 2 канала
Расположение каналов : Front: L R
Частота : 48,0 КГц
Битовая глубина : 16 бит
Метод сжатия : С потерями
Задержка видео : 16 мс.
Размер потока : 16,8 Мбайт (3%)
Заголовок : www.60-fps.org
Язык : English
Default : Да
Forced : Нет
Аудио #2
Идентификатор : 3
Формат : DTS
Формат/Информация : Digital Theater Systems
Режим : 16
Параметр Endianness формата : Big
Идентификатор кодека : A_DTS
Продолжительность : 3 м. 39 с.
Вид битрейта : Постоянный
Битрейт : 1413 Кбит/сек
Каналы : 2 канала
Расположение каналов : Front: L R
Частота : 48,0 КГц
Битовая глубина : 16 бит
Метод сжатия : С потерями
Задержка видео : 5 мс.
Размер потока : 37,0 Мбайт (6%)
Заголовок : www.60-fps.org
Язык : English
Default : Нет
Forced : Нет

Релиз подготовлен 60 - fps

[60-fps.org].t629.torrent
Торрент: Зарегистрирован [ 2015-05-02 01:29 ] · B4995962ADB2877B64122AEA8B7287B447F07F77

Скачать .torrent

Скачать

13 KB

Статус: проверено
Скачан: 42 раз
Поблагодарили:
Размер: 604 MB
 
Похожие Темы

[Цитировать]
mouradmahmoud

thank you :)

[Цитировать]
Anvar

на раздачу вернитесь дорогие мои))))
 
Показать сообщения:    

Текущее время: 23-Фев 12:22

Часовой пояс: UTC + 3


Вы не можете начинать темы
Вы не можете отвечать на сообщения
Вы не можете редактировать свои сообщения
Вы не можете удалять свои сообщения
Вы не можете голосовать в опросах
Вы не можете прикреплять файлы к сообщениям
Вы можете скачивать файлы