Philizz - Video Yearmix (2019) Full HD 1080p | 60 fps NK - ELEFANTE (2019) Full HD 1080p | 60 fps Britney Spears - Oops! I Did It Again Uncut (2009) HD 1080p | 60 fps Snoop Dogg - Wet (2011) Full HD 1080p | 60 fps Nicki Minaj - Anaconda (2014) BDRip 1080p | 60 fps Katy Perry - E.T. ft. Kanye West (2011) WEBRip 1080p | 60 fps Jennifer Lopez - Booty ft. Iggy Azalea (2014) BDRip 1080p | 60 fps Clean Bandit - Rockabye ft. Sean Paul & Anne-Marie (2016) WEBRip 1080p | 60 fps
  1. Longevity:
    6 years 7 months
    Posts:
    2414
    Gender:
    Male
    -Kylie Minogue - Red Blooded Woman (2010) Full HD 1080p | 60 fps- -Информация
    Исполнитель: Kylie Minogue
    Название: Red Blooded Woman
    Год выхода: 2010
    Продолжительность: 00:04:09-Файл
    Кодек: MPEG4/ISO/AVC/H.264/[email protected]
    Формат: MKV
    Качество: Full HD 1080p | 60 fps
    Видео : 1920 x 980 (1.959) | 60.000 fps 20.0 Мбит/сек
    Аудио : DTS | 1413 Кбит/сек | 48.0 KHz | 2.0 ch

    MediaInfo

    Видео
    Идентификатор : 1
    Формат : AVC
    Формат/Информация : Advanced Video Codec
    Профиль формата : [email protected]
    Параметр CABAC формата : Да
    Параметр ReFrames формата : 3 кадра
    Идентификатор кодека : V_MPEG4/ISO/AVC
    Продолжительность : 4 м. 9 с.
    Вид битрейта : Переменный
    Битрейт : 19,6 Мбит/сек
    Максимальный битрейт : 20,0 Мбит/сек
    Ширина : 1920 пикселей
    Высота : 980 пикселей
    Соотношение сторон : 1,959
    Режим частоты кадров : Постоянный
    Частота кадров : 60,000 кадров/сек
    Стандарт вещания : PAL
    Цветовое пространство : YUV
    Субдискретизация насыщенности : 4:2:0
    Битовая глубина : 8 бит
    Тип развёртки : Прогрессивная
    Бит/(Пиксели*Кадры) : 0.173
    Размер потока : 582 Мбайт (91%)
    Заголовок : www.60-fps.org
    Язык : English
    Default : Да
    Forced : Нет
    Основные цвета : BT.709
    Характеристики трансфера : BT.709
    Коэффициенты матрицы : BT.709
    colour_range : Limited
    Аудио
    Идентификатор : 2
    Формат : DTS
    Формат/Информация : Digital Theater Systems
    Режим : 16
    Параметр Endianness формата : Big
    Идентификатор кодека : A_DTS
    Продолжительность : 4 м. 9 с.
    Вид битрейта : Постоянный
    Битрейт : 1413 Кбит/сек
    Каналы : 2 канала
    Расположение каналов : Front: L R
    Частота : 48,0 КГц
    Битовая глубина : 16 бит
    Метод сжатия : С потерями
    Задержка видео : 80 мс.
    Размер потока : 42,0 Мбайт (7%)
    Default : Да
    Forced : Нет
    DURATION : 00:04:09.504000000
    NUMBER_OF_FRAMES : 23391
    NUMBER_OF_BYTES : 44068644
    _STATISTICS_WRITING_APP : mkvmerge v7.6.0 ('Garden of Dreams') 32bit built on Feb 8 2015 12:51:39
    _STATISTICS_WRITING_DATE_UTC : 2016-11-03 18:00:28
    _STATISTICS_TAGS : BPS DURATION NUMBER_OF_FRAMES NUMBER_OF_BYTES

    Release was prepared by 60-fps.org

  2. Longevity:
    6 years 5 months
    Posts:
    50
    Gender:
    Male
    Спасибо ! Как всегда качественно. А звуковая дорожка перекодирована или оригинал ?
    06-Nov-2016 08:52 (after 2 days 11 hours)
  3. Longevity:
    4 years 2 months
    Posts:
    21
    Gender:
    Male
    Встаньте пожалуйста на раздачу
    24-Apr-2017 09:32 (after 5 months 18 days)
  4. Longevity:
    4 years 2 months
    Posts:
    21
    Gender:
    Male
    Спасибо, Kylie Minogue здесь шикарна.
    03-May-2017 07:37 (after 8 days)
  5. Longevity:
    3 years 9 months
    Posts:
    4
    Gender:
    Unknown
    Встаньте на раздачу Плачу Плачу
    10-Aug-2017 19:33 (after 3 months 7 days)


You cannot post new topics in this forum
You cannot reply to topics in this forum
You cannot edit your posts in this forum
You cannot delete your posts in this forum
You cannot vote in polls in this forum
You cannot attach files in this forum
You cannot download files in this forum