Тор: Рагнарёк / Thor: Ragnarok (2017) BDRip 1080p | 60 fps Мстители: Эра Альтрона / Avengers: Age of Ultron (2015) BDRip 1080p | 60 fps Стражи Галактики. Часть 2 / Guardians of the Galaxy Vol. 2 (2017) BDRip 1080p | 60 fps Доктор Стрэндж / Doctor Strange (2016) BDRip 1080p | 60 fps Мстители / The Avengers (2012) BDRip 720p | 60 fps Первый мститель: Противостояние / Captain America: Civil War (2016) BDRip 1080p | 60 fps Человек-паук: Возвращение домой / Spider-Man: Homecoming (2017) BDRip 1080p | 60 fps Дэдпул / Deadpool (2016) BDRip 1080p | 60 fps
  1. Стаж:
    3 года 11 месяцев
    Сообщений:
    2404
    Пол:
    Мужской
    «1945 Hashima - We called it hell on earth» Информация
    Название: Кунхам: Пограничный остров
    Оригинальное название: Gunhamdo / The Battleship Island
    Год выхода: 2017
    Жанр: Боевик, драма, военный, история
    Режиссер: Рю Сын-ван
    Сценарий: Рю Сын-ван, Щин Гён-иль
    Продюсер: Кан Хе-джон, Чо Сон-мин
    В ролях: Чжон Мин Хван, Чжи Соп Со, Чжун Ки Сон, Чжун Хён Ли, Су Ан Ким, Ин У Ким, Кён Ён Ли, Чжун Хи Ким, Мин Чжэ Ким (I), Сын Хван Син, Сын Чхоль Пэк, Чжу Бон Ки, Хён Так Син, Ман Сик Чон, Сок Ён Чон, Чжи Сон Ом

    Сюжет:
    Японцы называли этот остров Хасима. Шесть гектаров земли и бетона в 15 километрах от побережья Нагасаки. Здесь с конца XIX века профессиональные шахтеры добывали уголь из подводных забоев. Когда наступила война, и все ушли на фронт, на смену шахтерам стали привозить военнопленных китайцев и корейских переселенцев.
    Корейцы называли этот остров Кунхам. Или Остров-Броненосец. Для них он был тюрьмой, из которой невозможно сбежать. Руководитель оркестра Ли Ган-ок поддался на уговоры японского рекрутёра, который обещал бесплатную дорогу и работу в Японии. Так он с малолетней дочерью оказался на Кунхаме в компании соотечественников, среди которых можно было встретить и бандитов, и героев-подпольщиков. И каждый из них был готов принять участие в побеге.

    Страна: Корея Южная
    Продолжительность: 02:12:15

    Файл
    Кодек: H.264
    Формат: MKV
    Качество: BDRip 720p | 60 fps
    Видео: 1280 x 536 (2.388) | 60.000 fps | 10.0 Мбит/сек
    Аудио 01: AC3 | 5.1 | 48 kHz | 448 kbps | 16 bit | Любительский многоголосый - Колобок & Co.b - присутствует ненормативная лексика |
    Аудио 02: AC3 | 5.1 | 48 kHz | 448 kbps | 16 bit | Любительский двухголосый - Храм Дорам ТВ |
    Субтитры: Русские (Forced Song, Full), english

    MedifInfo

    Видео
    Идентификатор : 1
    Формат : AVC
    Формат/Информация : Advanced Video Codec
    Профиль формата : High@L4.1
    Настройки формата : CABAC / 4 Ref Frames
    Параметр CABAC формата : Да
    Параметр RefFrames формата : 4 кадра
    Режим смешивания : Header stripping
    Идентификатор кодека : V_MPEG4/ISO/AVC
    Продолжительность : 2 ч. 12 м.
    Вид битрейта : Переменный
    Битрейт : 9706 Кбит/сек
    Максимальный битрейт : 10000 Кбит/сек
    Ширина : 1280 пикселей
    Высота : 536 пикселей
    Соотношение сторон : 2,40:1
    Режим частоты кадров : Постоянный
    Частота кадров : 60,000 кадров/сек
    Стандарт вещания : NTSC
    Цветовое пространство : YUV
    Субдискретизация насыщенности : 4:2:0
    Битовая глубина : 8 бит
    Тип развёртки : Прогрессивная
    Бит/(Пиксели*Кадры) : 0.236
    Размер потока : 8,96 Гбайт (90%)
    Заголовок : www.60-fps.org
    Язык : English
    Default : Да
    Forced : Нет
    Цветовой диапазон : Limited
    Основные цвета : BT.601 NTSC
    Характеристики трансфера : BT.601
    Коэффициенты матрицы : BT.601
    Аудио #1
    Идентификатор : 2
    Формат : AC-3
    Формат/Информация : Audio Coding 3
    Режим смешивания : Header stripping
    Идентификатор кодека : A_AC3
    Продолжительность : 2 ч. 12 м.
    Вид битрейта : Постоянный
    Битрейт : 448 Кбит/сек
    Каналы : 6 каналов
    Расположение каналов : Front: L C R, Side: L R, LFE
    Частота : 48,0 КГц
    Частота кадров : 31,250 кадров/сек (1536 SPF)
    Битовая глубина : 16 бит
    Метод сжатия : С потерями
    Размер потока : 424 Мбайт (4%)
    Заголовок : Любительский многоголосый - Колобок & Co.b
    Язык : Russian
    ServiceKind/String : Complete Main
    Default : Да
    Forced : Нет
    Аудио #2
    Идентификатор : 3
    Формат : AC-3
    Формат/Информация : Audio Coding 3
    Режим смешивания : Header stripping
    Идентификатор кодека : A_AC3
    Продолжительность : 2 ч. 12 м.
    Вид битрейта : Постоянный
    Битрейт : 448 Кбит/сек
    Каналы : 6 каналов
    Расположение каналов : Front: L C R, Side: L R, LFE
    Частота : 48,0 КГц
    Частота кадров : 31,250 кадров/сек (1536 SPF)
    Битовая глубина : 16 бит
    Метод сжатия : С потерями
    Размер потока : 424 Мбайт (4%)
    Заголовок : Любительский двухголосый - Храм Дорам ТВ
    Язык : Russian
    ServiceKind/String : Complete Main
    Default : Нет
    Forced : Нет
    Текст #1
    Идентификатор : 4
    Формат : ASS
    Идентификатор кодека : S_TEXT/ASS
    Идентификатор кодека/Информация : Advanced Sub Station Alpha
    Метод сжатия : Без потерь
    Заголовок : Forced Song
    Язык : Russian
    Default : Да
    Forced : Нет
    Текст #2
    Идентификатор : 5
    Формат : UTF-8
    Идентификатор кодека : S_TEXT/UTF8
    Идентификатор кодека/Информация : UTF-8 Plain Text
    Заголовок : Full
    Язык : Russian
    Default : Нет
    Forced : Нет
    Текст #3
    Идентификатор : 6
    Формат : UTF-8
    Идентификатор кодека : S_TEXT/UTF8
    Идентификатор кодека/Информация : UTF-8 Plain Text
    Заголовок : Full
    Язык : English
    Default : Нет
    Forced : Нет
    Меню
    00:00:00.000 : en:Chapter 01
    00:12:29.232 : en:Chapter 02
    00:23:16.440 : en:Chapter 03
    00:33:22.107 : en:Chapter 04
    00:46:46.357 : en:Chapter 05
    00:56:11.732 : en:Chapter 06
    01:05:08.232 : en:Chapter 07
    01:18:08.899 : en:Chapter 08
    01:28:06.607 : en:Chapter 09
    01:39:09.399 : en:Chapter 10
    01:49:00.232 : en:Chapter 11
    02:04:14.524 : en:Chapter 12

    Релиз подготовлен 60 - fps



Вы не можете начинать темы
Вы не можете отвечать на сообщения
Вы не можете редактировать свои сообщения
Вы не можете удалять свои сообщения
Вы не можете голосовать в опросах
Вы не можете прикреплять файлы к сообщениям
Вы не можете скачивать файлы