[Цитировать]
ZHz

Название: Кунг Фьюри
Оригинальное название: Kung Fury
Год выпуска: 2015
Жанр: боевик, фантастика, комедия
Продолжительность: 00:31:06
Перевод: Любительский
Субтитры: Русские , Английские
Режиссер: Дэвид Сандберг-В ролях: Дэвид Сандберг, Йорма Такконе, Леопольд Нильссон, Стивен Чю, Андреас Кахлинг, Эрик Хёрнквист, Элени Янг, Хелен Алсон, Пер-Хенрик Арвидус, Эос Карлссон--Описание: В Майами 80-х появляется самый опасный преступник всех времен — Адольф Гитлер, по прозвищу Кунг Фюрер. Суперкоп Кунг Фьюри решает совершить путешествие во времени в нацистскую Германию, чтобы убить Гитлера и положить конец нацистской империи.
--
СЭМПЛ
Кодек: AVC
Формат: MKV
Качество: WEB-DLRip 720p
Видео: 1280x720, 60.000 fps, 5645 Kbps
Аудио №1:48 kHz, AC3, 2 ch, 256 kbps (Русский, OMSKBIRD records)
Аудио №2:48 kHz, AC3, 2 ch, 256 kbps (Оригинал)
Аудио №3:44.1 kHz, MPEG Audio, 2 ch, 192 kbps (Русский, Ozz Tv)
Аудио №4:44.1 kHz, MPEG Audio, 2 ch, 192 kbps (Русский, Doublezett Studio)

MediaInfo

General
Unique ID : 196853085802557821817024478433242819142 (0x9418867763597E9ABD6B151CE85CAA46)
Complete name : J:\60FPS\Kung Fury\Kung Fury [60FPS by ZHz].mkv
Format : Matroska
Format version : Version 4 / Version 2
File size : 1.39 GiB
Duration : 31mn 6s
Overall bit rate mode : Variable
Overall bit rate : 6 394 Kbps
Encoded date : UTC 2015-06-04 14:29:02
Writing application : mkvmerge v7.5.0 ('Glass Culture') 64bit built on Jan 4 2015 16:48:44
Writing library : libebml v1.3.1 + libmatroska v1.4.2
DURATION : 00:30:57.122000000
NUMBER_OF_FRAMES : 71093
NUMBER_OF_BYTES : 44504218
_STATISTICS_WRITING_APP : mkvmerge v7.5.0 ('Glass Culture') 64bit built on Jan 4 2015 16:48:44
_STATISTICS_WRITING_DATE_UT : 2015-06-04 14:29:02
_STATISTICS_TAGS : BPS DURATION NUMBER_OF_FRAMES NUMBER_OF_BYTES
Video
ID : 1
Format : AVC
Format/Info : Advanced Video Codec
Format profile : Main@L4.0
Format settings, CABAC : Yes
Format settings, ReFrames : 8 frames
Codec ID : V_MPEG4/ISO/AVC
Duration : 31mn 6s
Width : 1 280 pixels
Height : 720 pixels
Display aspect ratio : 16:9
Frame rate mode : Constant
Frame rate : 60.000 fps
Color space : YUV
Chroma subsampling : 4:2:0
Bit depth : 8 bits
Scan type : Progressive
Writing library : x264 core 144 r2525 40bb568
Encoding settings : cabac=1 / ref=8 / deblock=1:0:0 / analyse=0x1:0x110 / me=umh / subme=9 / psy=1 / psy_rd=1.00:0.00 / mixed_ref=0 / me_range=24 / chroma_me=1 / trellis=2 / 8x8dct=0 / cqm=0 / deadzone=21,11 / fast_pskip=1 / chroma_qp_offset=-2 / threads=12 / lookahead_threads=2 / sliced_threads=0 / nr=0 / decimate=1 / interlaced=0 / bluray_compat=0 / constrained_intra=0 / bframes=7 / b_pyramid=2 / b_adapt=2 / b_bias=0 / direct=3 / weightb=1 / open_gop=0 / weightp=2 / keyint=250 / keyint_min=25 / scenecut=40 / intra_refresh=0 / rc=crf / mbtree=0 / crf=17.0 / qcomp=0.60 / qpmin=0 / qpmax=69 / qpstep=4 / ip_ratio=1.40 / pb_ratio=1.30 / aq=1:1.00
Language : English
Default : Yes
Forced : No
DURATION : 00:30:20.850000000
NUMBER_OF_FRAMES : 109251
NUMBER_OF_BYTES : 1284764063
_STATISTICS_WRITING_APP : mkvmerge v7.5.0 ('Glass Culture') 64bit built on Jan 4 2015 16:48:44
_STATISTICS_WRITING_DATE_UT : 2015-06-04 14:29:02
_STATISTICS_TAGS : BPS DURATION NUMBER_OF_FRAMES NUMBER_OF_BYTES
Audio #1
ID : 2
Format : AC-3
Format/Info : Audio Coding 3
Mode extension : CM (complete main)
Format settings, Endianness : Big
Codec ID : A_AC3
Duration : 31mn 6s
Bit rate mode : Constant
Bit rate : 256 Kbps
Channel(s) : 2 channels
Channel positions : Front: L R
Sampling rate : 48.0 KHz
Bit depth : 16 bits
Compression mode : Lossy
Stream size : 57.0 MiB (4%)
Title : OmskBird 2.0
Language : Russian
Default : Yes
Forced : No
Audio #2
ID : 3
Format : AC-3
Format/Info : Audio Coding 3
Mode extension : CM (complete main)
Format settings, Endianness : Big
Codec ID : A_AC3
Duration : 31mn 6s
Bit rate mode : Constant
Bit rate : 256 Kbps
Channel(s) : 2 channels
Channel positions : Front: L R
Sampling rate : 48.0 KHz
Bit depth : 16 bits
Compression mode : Lossy
Stream size : 57.0 MiB (4%)
Title : eng
Language : English
Default : No
Forced : No
Audio #3
ID : 6
Format : MPEG Audio
Format version : Version 1
Format profile : Layer 3
Codec ID : A_MPEG/L3
Codec ID/Hint : MP3
Duration : 31mn 6s
Bit rate mode : Variable
Channel(s) : 2 channels
Sampling rate : 44.1 KHz
Compression mode : Lossy
Delay relative to video : 4s 0ms
Title : OzzTv
Language : Russian
Default : No
Forced : No
Audio #4
ID : 7
Format : MPEG Audio
Format version : Version 1
Format profile : Layer 3
Codec ID : A_MPEG/L3
Codec ID/Hint : MP3
Duration : 31mn 6s
Bit rate mode : Constant
Bit rate : 192 Kbps
Channel(s) : 2 channels
Sampling rate : 44.1 KHz
Compression mode : Lossy
Delay relative to video : 1ms
Stream size : 42.7 MiB (3%)
Title : Doublezett Studio в VHS стиле
Writing library : LAMELAME_MAJOR_VERSI
Language : Russian
Default : No
Forced : No
Text #1
ID : 4
Format : UTF-8
Codec ID : S_TEXT/UTF8
Codec ID/Info : UTF-8 Plain Text
Title : rus
Language : Russian
Default : No
Forced : No
Text #2
ID : 5
Format : UTF-8
Codec ID : S_TEXT/UTF8
Codec ID/Info : UTF-8 Plain Text
Title : eng
Language : English
Default : No
Forced : No

Скриншоты



Последний раз редактировалось: ZHz (2015-06-04 18:42), всего редактировалось 1 раз

[Цитировать]
Tranch

Снимаю воображаемую шляпу :aa:

[Цитировать]
Tranch

Ах, да. Мечты сбываются!

[Цитировать]
ZHz

2812Ах, да. Мечты сбываются!
А кто мешал посмотреть через SVP?

[Цитировать]
ZHz

обновил торрент файл с рутора

[Цитировать]
Tranch

ZHz,
Люблю коллекционировать! В SVP как раз таки смотрел 2 раза, и так 3 раза. Ручная работа всё же лучше, у меня всегда в процессе комп, а частота кадров сбиваться может, если что делаю.

[Цитировать]
Tranch

А так понимаю, в первый раз, когда я нажал СПАСИБО, оно сбросилось из-за перезаливки?

[Цитировать]
ZHz

Tranch, да

[Цитировать]
Тимур Артыков

Ну как вам фильм? Стоит качать?

[Цитировать]
Tranch

Тимур Артыков,
Конечно! Я 5 раз уже смотрел.

[Цитировать]
Tranch

Ещё с момента как он вышел конечно. В сообщении выше написал.

[Цитировать]
Тимур Артыков

Tranch, Хорошо спасибо

[Цитировать]
Tranch

Тимур Артыков,
Мне стиль нравится ещё, оформленный под VHS кассеты))

[Цитировать]
Fragrance

Кунг Фьюри класс фильм).
 
Показать сообщения:    

Текущее время: 08-Дек 19:06

Часовой пояс: UTC + 3


Вы не можете начинать темы
Вы не можете отвечать на сообщения
Вы не можете редактировать свои сообщения
Вы не можете удалять свои сообщения
Вы не можете голосовать в опросах
Вы не можете прикреплять файлы к сообщениям
Вы не можете скачивать файлы