[Цитировать]
Гость

Кунг-фу Панда

-Название: Кунг-фу Панда
Оригинальное название: Kung Fu Panda
Год выпуска: 2008
Страна: США
Жанр: мультфильм, боевик, комедия, приключения, семейный
Продолжительность: 01:32:09
Перевод: Дубляж
Субтитры: русские (Полные), английские (Оригинал)-Режиссер: Марк Осборн / Mark Osborne, Джон Стивенсон / John Stevenson-В ролях: Джек Блэк (Po, озвучка), Дастин Хоффман (Shifu, озвучка), Анджелина Джоли (Tigress, озвучка), Иэн МакШейн (Tai Lung, озвучка), Джеки Чан (Monkey, озвучка), Сет Роген (Mantis, озвучка), Люси Лью (Viper, озвучка), Дэвид Кросс (Crane, озвучка), Рэндолл Дак Ким (Oogway, озвучка), Джеймс Хонг (Mr. Ping, озвучка), Дэн Фоглер (Zeng, озвучка), Майкл Кларк Дункан (Commander Vachir, озвучка)-Описание:
Спасение Долины Мира и всех ее обитателей от непобедимого и безжалостного мастера Тай Лунга должно лечь на плечи Воина Дракона, Избранного среди лучших из лучших, коим становится... неуклюжий, ленивый и вечно голодный панда По.
Ему предстоит долгий и трудный путь к вершинам мастерства кунг-фу бок о бок с легендарными воинами: Тигрой, Обезьяной, Богомолом, Гадюкой и Журавлем. По постигнет тайну древнего Свитка и станет Воином Дракона только в том случае, если сможет поверить в себя...-Рейтинг

imdb.com: 7.60 (225 589)
MPAA: PG - Рекомендуется присутствие родителей-Автор рипа:Tiberiumsun69
-Качество: BDRip 1080p / 60 FPS
Формат: MKV
Видео кодек: AVC
Аудио кодек:AC3
Видео: AVC, 1920x800 (2.40:1), 11540 kbps, 59,940 fps, 0,125 bpp
Аудио №1: русский / AC3 / 5.1 / 48 kHz / 640 kbps / 16 bit |Дубляж|
Аудио №2: английский / AC3 / 5.1 / 48 kHz / 640 kbps / 16 bit
Навигация по главам: есть- -

MI

General
Unique ID : 202589116199740342739371792365874379808 (0x98693E997DF5B80588A843283590FC20)
Complete name : A:1080p 60fpsКунг-Фу панда 1080p 60fpsКунг-Фу панда 1 1080p 60 fps.mkv
Format : Matroska
Format version : Version 4 / Version 2
File size : 8.42 GiB
Duration : 1h 32mn
Overall bit rate : 13.1 Mbps
Encoded date : UTC 2014-09-27 06:45:07
Writing application : mkvmerge v6.9.1 ('Blue Panther') 64bit built on Apr 18 2014 18:23:38
Writing library : libebml v1.3.0 + libmatroska v1.4.1
Video
ID : 1
Format : AVC
Format/Info : Advanced Video Codec
Format profile : High@L4.1
Format settings, CABAC : Yes
Format settings, ReFrames : 4 frames
Codec ID : V_MPEG4/ISO/AVC
Duration : 1h 32mn
Bit rate : 11.5 Mbps
Width : 1 920 pixels
Height : 800 pixels
Display aspect ratio : 2.40:1
Frame rate : 59.940 fps
Color space : YUV
Chroma subsampling : 4:2:0
Bit depth : 8 bits
Scan type : Progressive
Bits/(Pixel*Frame) : 0.125
Stream size : 7.43 GiB (88%)
Writing library : x264 core 130 r2273 b3065e6
Encoding settings : cabac=1 / ref=4 / deblock=1:0:0 / analyse=0x3:0 / me=umh / subme=9 / psy=1 / psy_rd=0.00:0.00 / mixed_ref=1 / me_range=42 / chroma_me=0 / trellis=1 / 8x8dct=1 / cqm=0 / deadzone=21,11 / fast_pskip=0 / chroma_qp_offset=0 / threads=12 / lookahead_threads=1 / sliced_threads=0 / nr=0 / decimate=0 / interlaced=0 / bluray_compat=0 / constrained_intra=0 / bframes=5 / b_pyramid=2 / b_adapt=2 / b_bias=0 / direct=1 / weightb=1 / open_gop=0 / weightp=2 / keyint=594 / keyint_min=59 / scenecut=40 / intra_refresh=0 / rc=crf / mbtree=0 / crf=14.0 / qcomp=0.60 / qpmin=0 / qpmax=69 / qpstep=4 / ip_ratio=1.40 / pb_ratio=1.30 / aq=1:0.90
Language : English
Default : Yes
Forced : No
Audio #1
ID : 2
Format : AC-3
Format/Info : Audio Coding 3
Mode extension : CM (complete main)
Codec ID : A_AC3
Duration : 1h 32mn
Bit rate mode : Constant
Bit rate : 640 Kbps
Channel(s) : 6 channels
Channel positions : Front: L C R, Side: L R, LFE
Sampling rate : 48.0 KHz
Bit depth : 16 bits
Compression mode : Lossy
Stream size : 422 MiB (5%)
Title : Дубляж
Language : Russian
Default : Yes
Forced : No
Audio #2
ID : 3
Format : AC-3
Format/Info : Audio Coding 3
Mode extension : CM (complete main)
Codec ID : A_AC3
Duration : 1h 32mn
Bit rate mode : Constant
Bit rate : 640 Kbps
Channel(s) : 6 channels
Channel positions : Front: L C R, Side: L R, LFE
Sampling rate : 48.0 KHz
Bit depth : 16 bits
Compression mode : Lossy
Stream size : 422 MiB (5%)
Title : Оригинал
Language : English
Default : No
Forced : No
Text #1
ID : 4
Format : UTF-8
Codec ID : S_TEXT/UTF8
Codec ID/Info : UTF-8 Plain Text
Title : Полные
Language : Russian
Default : No
Forced : No
Text #2
ID : 5
Format : UTF-8
Codec ID : S_TEXT/UTF8
Codec ID/Info : UTF-8 Plain Text
Title : Оригинал
Language : English
Default : No
Forced : No
Menu
00:00:00.000 : en:Chapter 1
00:02:31.401 : en:Chapter 2
00:05:17.066 : en:Chapter 3
00:07:58.895 : en:Chapter 4
00:10:41.932 : en:Chapter 5
00:16:39.331 : en:Chapter 6
00:19:28.500 : en:Chapter 7
00:22:41.651 : en:Chapter 8
00:26:19.869 : en:Chapter 9
00:31:13.872 : en:Chapter 10
00:35:26.124 : en:Chapter 11
00:38:35.604 : en:Chapter 12
00:42:34.760 : en:Chapter 13
00:45:45.909 : en:Chapter 14
00:51:29.711 : en:Chapter 15
00:56:29.052 : en:Chapter 16
00:58:48.358 : en:Chapter 17
01:02:06.222 : en:Chapter 18
01:06:52.883 : en:Chapter 19
01:09:52.938 : en:Chapter 20
01:14:05.482 : en:Chapter 21
01:20:04.466 : en:Chapter 22
01:23:11.987 : en:Chapter 23
01:32:09.232 : en:Chapter 24

Скриншоты

Кунг-фу Панда 2

-Название: Кунг-фу Панда 2
Оригинальное название: Kung Fu Panda 2
Год выпуска: 2011
Страна: США
Жанр: мультфильм, боевик, комедия, приключения, семейный
Продолжительность: 01:30:23
Перевод: Дубляж
Субтитры: русские (Полные), английские (Полные)-Режиссер: Дженнифер Ю / Jennifer Yuh-В ролях: Джек Блэк (Po, озвучка), Анджелина Джоли (Tigress, озвучка,), Дастин Хоффман (Shifu, озвучка), Гари Олдман (Shen, озвучка), Джеки Чан (Monkey, озвучка), Сет Роген (Mantis, озвучка), Люси Лью (Viper, озвучка), Дэвид Кросс (Crane, озвучка), Мишель Йео (Soothsayer, озвучка), Жан-Клод Ван Дамм (Master Croc, озвучка), Дэнни МакБрайд (Wolf Boss, озвучка), Джеймс Хонг (Mr. Ping, озвучка)-Описание:
Панда По наконец-то исполнит свою мечту, станет Воином Дракона и со своими друзьями и мастерами кунг-фу - Неистовой Пятеркой - защитит Великую Долину от страшного злодея и его легиона...-Рейтинг

imdb.com: 7.30 (129 276)
MPAA: PG - Рекомендуется присутствие родителей-Автор рипа:Tiberiumsun69
-Качество: BDRip 1080p / 60 FPS
Формат: MKV
Видео кодек: AVC
Аудио кодек:AC3
Видео: AVC, 1920x816, 11982 kbps, 59,940 fps
Аудио №1: русский / AC3 / 5.1 / 48 kHz / 640 kbps / 16 bit |Дубляж|
Аудио №2: английский / AC3 / 5.1 / 48 kHz / 640 kbps / 16 bit
Навигация по главам: есть- -

MI

General
Unique ID : 182911195239065139757761933262949060347 (0x899B6A30D2505774A6A192891D360EFB)
Complete name : A:1080p 60fpsКунг-Фу панда 1080p 60fpsКунг-Фу панда 2 1080p 60 fps.mkv
Format : Matroska
Format version : Version 4 / Version 2
File size : 8.54 GiB
Duration : 1h 30mn
Overall bit rate : 13.5 Mbps
Encoded date : UTC 2014-09-29 12:54:39
Writing application : mkvmerge v6.9.1 ('Blue Panther') 64bit built on Apr 18 2014 18:23:38
Writing library : libebml v1.3.0 + libmatroska v1.4.1
Video
ID : 1
Format : AVC
Format/Info : Advanced Video Codec
Format profile : High@L4.1
Format settings, CABAC : Yes
Format settings, ReFrames : 4 frames
Codec ID : V_MPEG4/ISO/AVC
Duration : 1h 30mn
Bit rate : 12.0 Mbps
Width : 1 920 pixels
Height : 816 pixels
Display aspect ratio : 2.35:1
Frame rate : 59.940 fps
Color space : YUV
Chroma subsampling : 4:2:0
Bit depth : 8 bits
Scan type : Progressive
Bits/(Pixel*Frame) : 0.128
Stream size : 7.57 GiB (89%)
Writing library : x264 core 130 r2273 b3065e6
Encoding settings : cabac=1 / ref=4 / deblock=1:0:0 / analyse=0x3:0 / me=umh / subme=9 / psy=1 / psy_rd=0.00:0.00 / mixed_ref=1 / me_range=42 / chroma_me=0 / trellis=1 / 8x8dct=1 / cqm=0 / deadzone=21,11 / fast_pskip=0 / chroma_qp_offset=0 / threads=12 / lookahead_threads=1 / sliced_threads=0 / nr=0 / decimate=0 / interlaced=0 / bluray_compat=0 / constrained_intra=0 / bframes=5 / b_pyramid=2 / b_adapt=2 / b_bias=0 / direct=1 / weightb=1 / open_gop=0 / weightp=2 / keyint=594 / keyint_min=59 / scenecut=40 / intra_refresh=0 / rc=crf / mbtree=0 / crf=14.0 / qcomp=0.60 / qpmin=0 / qpmax=69 / qpstep=4 / ip_ratio=1.40 / pb_ratio=1.30 / aq=1:0.90
Language : English
Default : Yes
Forced : No
Audio #1
ID : 2
Format : AC-3
Format/Info : Audio Coding 3
Mode extension : CM (complete main)
Codec ID : A_AC3
Duration : 1h 30mn
Bit rate mode : Constant
Bit rate : 640 Kbps
Channel(s) : 6 channels
Channel positions : Front: L C R, Side: L R, LFE
Sampling rate : 48.0 KHz
Bit depth : 16 bits
Compression mode : Lossy
Stream size : 414 MiB (5%)
Title : Дубляж
Language : Russian
Default : Yes
Forced : No
Audio #2
ID : 3
Format : AC-3
Format/Info : Audio Coding 3
Mode extension : CM (complete main)
Codec ID : A_AC3
Duration : 1h 30mn
Bit rate mode : Constant
Bit rate : 640 Kbps
Channel(s) : 6 channels
Channel positions : Front: L C R, Side: L R, LFE
Sampling rate : 48.0 KHz
Bit depth : 16 bits
Compression mode : Lossy
Stream size : 414 MiB (5%)
Title : Оригинал
Language : English
Default : No
Forced : No
Text #1
ID : 4
Format : UTF-8
Codec ID : S_TEXT/UTF8
Codec ID/Info : UTF-8 Plain Text
Title : Полные
Language : Russian
Default : No
Forced : No
Text #2
ID : 5
Format : UTF-8
Codec ID : S_TEXT/UTF8
Codec ID/Info : UTF-8 Plain Text
Title : Полные
Language : English
Default : No
Forced : No
Menu
00:00:00.000 : en:Chapter 1
00:03:54.276 : en:Chapter 2
00:10:35.343 : en:Chapter 3
00:16:09.385 : en:Chapter 4
00:21:15.774 : en:Chapter 5
00:29:56.628 : en:Chapter 6
00:36:53.878 : en:Chapter 7
00:41:14.180 : en:Chapter 8
00:49:44.815 : en:Chapter 9
00:54:06.827 : en:Chapter 10
00:58:54.781 : en:Chapter 11
01:05:09.239 : en:Chapter 12
01:11:43.799 : en:Chapter 13
01:15:31.902 : en:Chapter 14
01:21:15.871 : en:Chapter 15

Скриншоты

Просьба к переливающим на другие сайты, в оформлении указывайте пожалуйста авторство рипа - Tiberiumsun69

Топик был перенесен из форума Зарубежные фильмы 60fps в форум Мультфильмы 60fps
Tiberiumsun69
 
Показать сообщения:    

Текущее время: 23-Сен 01:25

Часовой пояс: UTC + 3


Вы не можете начинать темы
Вы не можете отвечать на сообщения
Вы не можете редактировать свои сообщения
Вы не можете удалять свои сообщения
Вы не можете голосовать в опросах
Вы не можете прикреплять файлы к сообщениям
Вы не можете скачивать файлы