«Притяженья больше нет»- Информация
Название: Кунг-фу Панда 3
Оригинальное название: Kung Fu Panda 3
Год выхода: 2016
Жанр: Мультфильм, боевик, комедия, приключения, семейный
Режиссер: Алессандро Карлони, Дженнифер Ю
Сценарий: Джонатан Айбел, Гленн Бергер
Продюсер: Мелисса Кобб, Джонатан Айбел, Гленн Бергер
Персонажей озвучивали: Джек Блэк, Брайан Крэнстон, Дастин Хоффман, Анджелина Джоли, Дж.К. Симмонс, Джеки Чан, Сет Роген, Люси Лью, Дэвид Кросс, Кейт Хадсон, Джеймс Хонг, Рэндолл Дак Ким, Стил Гэнон, Лайам Найт, Уэйн Найт, Эл Рокер, Уилли Гайст, Фред Татаскьор, Пакс Джоли-Питт, Майк Митчелл
--Сюжет:

Воссоединившись со своим давно потерянным отцом, По отправляется в тайный рай для панд, где его ожидает встреча с множеством веселых сородичей. Однако вскоре злодей Кай начинает зачистку — он уничтожает кунг-фу мастеров по всему Китаю.
По предстоит сделать невозможное — обучить боевому искусству деревню, полную его веселых, неуклюжих собратьев, и тем самым превратить их в отряд кунг-фу панд.
- - Страна: США, Китай
Продолжительность: 01:34:56

Файл
Кодек: MPEG4/ISO/AVC H.264
Формат: MKV
Качество: BDRip 720p | 60 fps
Видео: 1280 x 544 (2.353) | 59.940 fps | 4.9 Мбит/сек
Аудио 1: AC3 | 5.1 | 48 kHz | 448 kbps | 16 bit | Дубляж |
Аудио 2: AC3 | 5.1 | 48 kHz | 448 kbps | 16 bit | ENG |
Субтитры: Русские, английские

MedifInfo

Video
ID : 1
Format : AVC
Format/Info : Advanced Video Codec
Format profile : High@L4.1
Format settings, CABAC : Yes
Format settings, ReFrames : 9 frames
Codec ID : V_MPEG4/ISO/AVC
Duration : 1h 34mn
Bit rate : 4 900 Kbps
Width : 1 280 pixels
Height : 544 pixels
Display aspect ratio : 2.35:1
Frame rate mode : Constant
Frame rate : 59.940 (60000/1001) fps
Color space : YUV
Chroma subsampling : 4:2:0
Bit depth : 8 bits
Scan type : Progressive
Bits/(Pixel*Frame) : 0.117
Stream size : 3.25 GiB (83%)
Title : Kung.Fu.Panda.3.(2016).BDRip.720p.[envy].[60fps]
Writing library : x264 core 146 r2538 121396c
Encoding settings : cabac=1 / ref=9 / deblock=1:0:0 / analyse=0x3:0x113 / me=umh / subme=9 / psy=1 / psy_rd=1.00:0.00 / mixed_ref=1 / me_range=24 / chroma_me=1 / trellis=2 / 8x8dct=1 / cqm=0 / deadzone=21,11 / fast_pskip=0 / chroma_qp_offset=-2 / threads=12 / lookahead_threads=1 / sliced_threads=0 / nr=0 / decimate=1 / interlaced=0 / bluray_compat=0 / constrained_intra=0 / bframes=5 / b_pyramid=2 / b_adapt=2 / b_bias=0 / direct=3 / weightb=1 / open_gop=0 / weightp=2 / keyint=250 / keyint_min=25 / scenecut=40 / intra_refresh=0 / rc_lookahead=40 / rc=crf / mbtree=0 / crf=17.1 / qcomp=0.60 / qpmin=0 / qpmax=69 / qpstep=4 / vbv_maxrate=14000 / vbv_bufsize=14000 / crf_max=0.0 / nal_hrd=none / filler=0 / ip_ratio=1.40 / pb_ratio=1.30 / aq=3:1.00
Language : English
Default : Yes
Forced : No
Audio #1
ID : 2
Format : AC-3
Format/Info : Audio Coding 3
Mode extension : CM (complete main)
Format settings, Endianness : Big
Codec ID : A_AC3
Duration : 1h 34mn
Bit rate mode : Constant
Bit rate : 448 Kbps
Channel(s) : 6 channels
Channel positions : Front: L C R, Side: L R, LFE
Sampling rate : 48.0 KHz
Frame rate : 31.250 fps (1536 spf)
Compression mode : Lossy
Stream size : 304 MiB (8%)
Title : Dub
Language : Russian
Default : Yes
Forced : No
Audio #2
ID : 3
Format : AC-3
Format/Info : Audio Coding 3
Mode extension : CM (complete main)
Format settings, Endianness : Big
Codec ID : A_AC3
Duration : 1h 34mn
Bit rate mode : Constant
Bit rate : 448 Kbps
Channel(s) : 6 channels
Channel positions : Front: L C R, Side: L R, LFE
Sampling rate : 48.0 KHz
Frame rate : 31.250 fps (1536 spf)
Compression mode : Lossy
Stream size : 304 MiB (8%)
Title : Eng
Language : English
Default : No
Forced : No
Text #1
ID : 4
Format : UTF-8
Codec ID : S_TEXT/UTF8
Codec ID/Info : UTF-8 Plain Text
Title : Rus full
Language : Russian
Default : No
Forced : No
Text #2
ID : 5
Format : UTF-8
Codec ID : S_TEXT/UTF8
Codec ID/Info : UTF-8 Plain Text
Title : Eng full
Language : English
Default : No
Forced : No
Menu
00:00:00.000 : :00:00:00.000
00:05:21.780 : :00:05:21.780
00:08:10.240 : :00:08:10.240
00:10:00.016 : :00:10:00.016
00:12:26.037 : :00:12:26.037
00:15:24.215 : :00:15:24.215
00:19:08.230 : :00:19:08.230
00:24:39.395 : :00:24:39.395
00:30:17.607 : :00:30:17.607
00:33:53.990 : :00:33:53.990
00:36:18.259 : :00:36:18.259
00:39:55.643 : :00:39:55.643
00:43:32.652 : :00:43:32.652
00:46:45.845 : :00:46:45.845
00:51:41.181 : :00:51:41.181
00:56:04.611 : :00:56:04.611
00:59:48.168 : :00:59:48.168
01:02:11.353 : :01:02:11.353
01:05:26.965 : :01:05:26.965
01:10:16.838 : :01:10:16.838
01:14:06.901 : :01:14:06.901
01:17:06.580 : :01:17:06.580
01:20:34.788 : :01:20:34.788
01:24:21.181 : :01:24:21.181

[Цитировать]
ENIGMA

Большое Спасибо :)

[Цитировать]
envy

Народ в видео ряде есть место гла картинка рассыпается.
Всё остальное без нареканий))
 
Показать сообщения:    

Текущее время: 26-Июн 18:43

Часовой пояс: UTC + 3


Вы не можете начинать темы
Вы не можете отвечать на сообщения
Вы не можете редактировать свои сообщения
Вы не можете удалять свои сообщения
Вы не можете голосовать в опросах
Вы не можете прикреплять файлы к сообщениям
Вы не можете скачивать файлы