[Цитировать]
Kryl

«Притяженья больше нет»- Информация
Название: Кунг-фу Панда 3
Оригинальное название: Kung Fu Panda 3
Год выхода: 2016
Жанр: Мультфильм, боевик, комедия, приключения, семейный
Режиссер: Алессандро Карлони, Дженнифер Ю
Сценарий: Джонатан Айбел, Гленн Бергер
Продюсер: Мелисса Кобб, Джонатан Айбел, Гленн Бергер
Персонажей озвучивали: Джек Блэк, Брайан Крэнстон, Дастин Хоффман, Анджелина Джоли, Дж.К. Симмонс, Джеки Чан, Сет Роген, Люси Лью, Дэвид Кросс, Кейт Хадсон, Джеймс Хонг, Рэндолл Дак Ким, Стил Гэнон, Лайам Найт, Уэйн Найт, Эл Рокер, Уилли Гайст, Фред Татаскьор, Пакс Джоли-Питт, Майк Митчелл
--Сюжет:

Воссоединившись со своим давно потерянным отцом, По отправляется в тайный рай для панд, где его ожидает встреча с множеством веселых сородичей. Однако вскоре злодей Кай начинает зачистку — он уничтожает кунг-фу мастеров по всему Китаю.
По предстоит сделать невозможное — обучить боевому искусству деревню, полную его веселых, неуклюжих собратьев, и тем самым превратить их в отряд кунг-фу панд.
- Страна: США, Китай
Продолжительность: 01:34:56

Файл
Кодек: MPEG4/ISO/AVC H.264
Формат: MKV
Качество: BDRip 720p | 60 fps
Видео: 1280 x 544 (2.353) | 59.940 fps | 8.0 Мбит/сек
Аудио 1: AC3 | 5.1 | 48 kHz | 384 kbps | 16 bit | Дубляж iTunes |
Аудио 2: AC3 | 5.1 | 48 kHz | 448 kbps | 16 bit | ENG |
Субтитры: Русские, английские

MedifInfo

Видео
Идентификатор : 1
Формат : AVC
Формат/Информация : Advanced Video Codec
Профиль формата : High@L4.1
Параметр CABAC формата : Да
Параметр ReFrames формата : 5 кадров
Идентификатор кодека : V_MPEG4/ISO/AVC
Продолжительность : 1 ч. 34 м.
Битрейт : 7999 Кбит/сек
Ширина : 1280 пикселей
Высота : 544 пикселя
Соотношение сторон : 2,35:1
Режим частоты кадров : Постоянный
Частота кадров : 59,880 кадров/сек
Частота кадров в оригинале : 59,940 кадров/сек
Цветовое пространство : YUV
Субдискретизация насыщенности : 4:2:0
Битовая глубина : 8 бит
Тип развёртки : Прогрессивная
Бит/(Пиксели*Кадры) : 0.192
Размер потока : 5,19 Гбайт (89%)
Заголовок : www.60-fps.org
Библиотека кодирования : x264 core 148 r2638 7599210
Настройки программы : cabac=1 / ref=5 / deblock=1:-2:-2 / analyse=0x3:0x113 / me=umh / subme=8 / psy=1 / psy_rd=1.00:0.25 / mixed_ref=1 / me_range=32 / chroma_me=1 / trellis=1 / 8x8dct=1 / cqm=0 / deadzone=6,6 / fast_pskip=1 / chroma_qp_offset=-4 / threads=12 / lookahead_threads=2 / sliced_threads=0 / nr=0 / decimate=0 / interlaced=0 / bluray_compat=0 / constrained_intra=0 / bframes=3 / b_pyramid=2 / b_adapt=2 / b_bias=0 / direct=3 / weightb=1 / open_gop=0 / weightp=2 / keyint=599 / keyint_min=59 / scenecut=40 / intra_refresh=0 / rc_lookahead=50 / rc=2pass / mbtree=1 / bitrate=7999 / ratetol=1.0 / qcomp=0.80 / qpmin=0 / qpmax=69 / qpstep=4 / cplxblur=20.0 / qblur=0.5 / vbv_maxrate=62500 / vbv_bufsize=78125 / nal_hrd=none / filler=0 / ip_ratio=1.10 / aq=1:0.50
Default : Да
Forced : Нет
Аудио #1
Идентификатор : 2
Формат : AC-3
Формат/Информация : Audio Coding 3
Расширение режима : CM (complete main)
Параметр Endianness формата : Big
Идентификатор кодека : A_AC3
Продолжительность : 1 ч. 34 м.
Вид битрейта : Постоянный
Битрейт : 384 Кбит/сек
Каналы : 6 каналов
Расположение каналов : Front: L C R, Side: L R, LFE
Частота : 48,0 КГц
Битовая глубина : 16 бит
Метод сжатия : С потерями
Размер потока : 261 Мбайт (4%)
Заголовок : Дубляж
Язык : Russian
Default : Да
Forced : Нет
Аудио #2
Идентификатор : 3
Формат : AC-3
Формат/Информация : Audio Coding 3
Расширение режима : CM (complete main)
Параметр Endianness формата : Big
Идентификатор кодека : A_AC3
Продолжительность : 1 ч. 34 м.
Вид битрейта : Постоянный
Битрейт : 448 Кбит/сек
Каналы : 6 каналов
Расположение каналов : Front: L C R, Side: L R, LFE
Частота : 48,0 КГц
Битовая глубина : 16 бит
Метод сжатия : С потерями
Размер потока : 304 Мбайт (5%)
Заголовок : eng
Язык : English
Default : Нет
Forced : Нет
Текст #1
Идентификатор : 4
Формат : UTF-8
Идентификатор кодека : S_TEXT/UTF8
Идентификатор кодека/Информация : UTF-8 Plain Text
Язык : Russian
Default : Нет
Forced : Нет
Текст #2
Идентификатор : 5
Формат : UTF-8
Идентификатор кодека : S_TEXT/UTF8
Идентификатор кодека/Информация : UTF-8 Plain Text
Язык : English
Default : Нет
Forced : Нет
Меню
00:00:00.000 : en:Chapter 1
00:05:21.780 : en:Chapter 2
00:08:10.240 : en:Chapter 3
00:10:00.016 : en:Chapter 4
00:12:26.037 : en:Chapter 5
00:15:24.215 : en:Chapter 6
00:19:08.230 : en:Chapter 7
00:24:39.395 : en:Chapter 8
00:30:17.607 : en:Chapter 9
00:33:53.990 : en:Chapter 10
00:36:18.259 : en:Chapter 11
00:39:55.643 : en:Chapter 12
00:43:32.652 : en:Chapter 13
00:46:45.845 : en:Chapter 14
00:51:41.181 : en:Chapter 15
00:56:04.611 : en:Chapter 16
00:59:48.168 : en:Chapter 17
01:02:11.353 : en:Chapter 18
01:05:26.965 : en:Chapter 19
01:10:16.838 : en:Chapter 20
01:14:06.901 : en:Chapter 21
01:17:06.580 : en:Chapter 22
01:20:34.788 : en:Chapter 23
01:24:21.181 : en:Chapter 24

Релиз подготовлен 60 - fps

Топик был перенесен из форума Новинки КиноПроката 60 FPS в форум Мультфильмы 60 FPS
Kryl
 
Показать сообщения:    

Текущее время: 03-Дек 16:37

Часовой пояс: UTC + 3


Вы не можете начинать темы
Вы не можете отвечать на сообщения
Вы не можете редактировать свои сообщения
Вы не можете удалять свои сообщения
Вы не можете голосовать в опросах
Вы не можете прикреплять файлы к сообщениям
Вы не можете скачивать файлы