«Bruce Lee claims his revenge through death and beyond»- Информация
Название: Кулак ярости
Оригинальное название: Jing wu men
Год выхода: 1972
Жанр: Боевик, триллер, драма, мелодрама
Режиссер: Ло Вэй
Сценарий: Ло Вэй
Продюсер: Рэймонд Чоу, Лианг Хуа Лью
В ролях: Брюс Ли, Нора Миао, Джеймс Тьен, Мария Йи, Роберт Бейкер, Фу Чинг Чен, Сань Чинь, Инь-Чиэ Хань, Рики Хашимото, Дзюн Кацумура
--Сюжет:
Искусный и быстрый, как молния, мастер восточных боевых искусств Чен Жен возвращается в свою бывшую школу, где его ждет страшная новость. Зверски убит глубоко почитаемый наставник, преподававший кунг-фу и карате. Действие фильма происходит в 1908 году в оккупированном японцами Шанхае. Нападение на школу и убийство учителя было организовано одной из японских школ бушидо. Зная, что власти и пальцем не пошевелят, чтобы привлечь преступников к ответственности, Чен Жен обрушивает на злодеев свой кулак ярости.- - Страна: Гонконг
Продолжительность: 01:46:10

Файл
Кодек: MPEG4/ISO/AVC H.264
Формат: MKV
Качество: BDRip-AVC | 60 fps
Видео: 1024x432 (2.35:1) | 59.940 fps | 3.2 Мбит/сек
Аудио: AC3 | 5.1 | 48 kHz | 640 kbps | 16 bit | Двухголосый закадровый |
Субтитры: Русские, английские

MedifInfo

Video
ID : 1
Format : AVC
Format/Info : Advanced Video Codec
Format profile : High@L4.1
Format settings, CABAC : Yes
Format settings, ReFrames : 9 frames
Codec ID : V_MPEG4/ISO/AVC
Duration : 1h 46mn
Bit rate : 3 292 Kbps
Width : 1 024 pixels
Height : 432 pixels
Display aspect ratio : 2.35:1
Frame rate : 59.940 fps
Color space : YUV
Chroma subsampling : 4:2:0
Bit depth : 8 bits
Scan type : Progressive
Bits/(Pixel*Frame) : 0.124
Stream size : 2.44 GiB (82%)
Writing library : x264 core 146 r2538 121396c
Encoding settings : cabac=1 / ref=9 / deblock=1:0:0 / analyse=0x3:0x112 / me=umh / subme=11 / psy=1 / psy_rd=1.00:0.00 / mixed_ref=1 / me_range=32 / chroma_me=0 / trellis=2 / 8x8dct=1 / cqm=0 / deadzone=21,11 / fast_pskip=1 / chroma_qp_offset=-2 / threads=12 / lookahead_threads=2 / sliced_threads=0 / nr=0 / decimate=0 / interlaced=0 / bluray_compat=0 / constrained_intra=0 / bframes=8 / b_pyramid=2 / b_adapt=2 / b_bias=0 / direct=3 / weightb=1 / open_gop=0 / weightp=2 / keyint=250 / keyint_min=25 / scenecut=40 / intra_refresh=0 / rc=crf / mbtree=0 / crf=17.5 / qcomp=0.60 / qpmin=0 / qpmax=69 / qpstep=4 / ip_ratio=1.40 / pb_ratio=1.30 / aq=1:1.00
Language : English
Default : Yes
Forced : No
Audio
ID : 2
Format : AC-3
Format/Info : Audio Coding 3
Mode extension : CM (complete main)
Codec ID : A_AC3
Duration : 1h 46mn
Bit rate mode : Constant
Bit rate : 640 Kbps
Channel(s) : 6 channels
Channel positions : Front: L C R, Side: L R, LFE
Sampling rate : 48.0 KHz
Bit depth : 16 bits
Compression mode : Lossy
Stream size : 486 MiB (16%)
Title : (Двухголосый закадровый)
Language : Russian
Default : Yes
Forced : No
Text #1
ID : 3
Format : UTF-8
Codec ID : S_TEXT/UTF8
Codec ID/Info : UTF-8 Plain Text
Language : Russian
Default : Yes
Forced : No
Text #2
ID : 4
Format : UTF-8
Codec ID : S_TEXT/UTF8
Codec ID/Info : UTF-8 Plain Text
Language : English
Default : No
Forced : No
Menu
00:00:00.000 : en:Chapter1
00:04:18.466 : en:Chapter2
00:06:05.656 : en:Chapter3
00:08:52.197 : en:Chapter4
00:15:57.373 : en:Chapter5
00:26:17.826 : en:Chapter6
00:29:33.896 : en:Chapter7
00:39:04.675 : en:Chapter8
00:45:18.925 : en:Chapter9
00:49:08.862 : en:Chapter10
00:56:56.579 : en:Chapter11
01:01:14.753 : en:Chapter12
01:09:23.368 : en:Chapter13
01:16:25.038 : en:Chapter14
01:23:20.662 : en:Chapter15
01:28:38.521 : en:Chapter16
01:36:37.750 : en:Chapter17
01:41:55.150 : en:Chapter18

[Цитировать]
Fragrance

Класс ! Спасибо! другие фильмы будут дракона?)

[Цитировать]
DIMMM52

смотрел в видеосалоне за 1руб. в конце 80-х, эх ностальгия, пасиб.

[Цитировать]
rembo1410

спасибо
 
Показать сообщения:    

Текущее время: 21-Сен 11:32

Часовой пояс: UTC + 3


Вы не можете начинать темы
Вы не можете отвечать на сообщения
Вы не можете редактировать свои сообщения
Вы не можете удалять свои сообщения
Вы не можете голосовать в опросах
Вы не можете прикреплять файлы к сообщениям
Вы не можете скачивать файлы