[Цитировать]
Kryl

«Каждый ребенок должен быть любим»- Информация
Название: Кукла
Оригинальное название: The Boy
Год выхода: 2016
Жанр: ужасы, триллер, детектив
Режиссер: Уильям Брент Белл
Сценарий: Стэйси Мениа
Продюсер: Мэтт Беренсон, Рой Ли, Гари Лучези
В ролях: Лорен Кохэн, Руперт Эванс, Джеймс Расселл, Джим Нортон, Диана Хардкэсл, Бен Робсон, Джетт Клине, Лили Патер
--Сюжет:
Благополучная английская семья нанимает для своего сына американскую няню. Приехав на новое место работы, няня обнаруживает, что её подопечный вовсе не настоящий мальчик, а кукла в человеческий рост, с которой обращаются, как с живым человеком. Но тревожные события, происходящие после того, как няня нарушает установленные строгие правила, заставляют её поверить в то, что кукла действительно может быть живой.- Страна: США, Китай, Канада
Продолжительность: 01:37:47

Файл
Кодек: MPEG4/ISO/AVC H.264
Формат: MKV
Качество: BDRip 720p | 60 fps
Видео: 1280 x 534 (2.397) | 59.940 fps | 8.0 Мбит/сек
Аудио 1: AC3 | 5.1 | 48 kHz | 384 kbps | 16 bit | Дубляж (iTunes) |
Аудио 2: AC3 | 5.1 | 48 kHz | 384 kbps | 16 bit | ENG |
Субтитры: ENG

MedifInfo

Видео
Идентификатор : 1
Формат : AVC
Формат/Информация : Advanced Video Codec
Профиль формата : High@L4.1
Параметр CABAC формата : Да
Параметр ReFrames формата : 3 кадра
Идентификатор кодека : V_MPEG4/ISO/AVC
Продолжительность : 1 ч. 37 м.
Вид битрейта : Переменный
Битрейт : 7800 Кбит/сек
Максимальный битрейт : 8000 Кбит/сек
Ширина : 1280 пикселей
Высота : 534 пикселя
Соотношение сторон : 2,40:1
Режим частоты кадров : Постоянный
Частота кадров : 59,880 кадров/сек
Частота кадров в оригинале : 59,940 кадров/сек
Стандарт вещания : PAL
Цветовое пространство : YUV
Субдискретизация насыщенности : 4:2:0
Битовая глубина : 8 бит
Тип развёртки : Прогрессивная
Бит/(Пиксели*Кадры) : 0.191
Размер потока : 5,33 Гбайт (89%)
Заголовок : www.60-fps.org
Язык : English
Default : Да
Forced : Нет
Основные цвета : BT.601 NTSC
Характеристики трансфера : BT.601
Коэффициенты матрицы : BT.601
colour_range : Limited
DURATION : 01:37:47.850000000
NUMBER_OF_FRAMES : 183371
NUMBER_OF_BYTES : 281657856
_STATISTICS_WRITING_APP : mkvmerge v7.6.0 ('Garden of Dreams') 32bit built on Feb 8 2015 12:51:39
_STATISTICS_WRITING_DATE_UTC : 2016-04-28 06:31:17
_STATISTICS_TAGS : BPS DURATION NUMBER_OF_FRAMES NUMBER_OF_BYTES
Аудио #1
Идентификатор : 2
Формат : AC-3
Формат/Информация : Audio Coding 3
Расширение режима : CM (complete main)
Параметр Endianness формата : Big
Идентификатор кодека : A_AC3
Продолжительность : 1 ч. 37 м.
Вид битрейта : Постоянный
Битрейт : 384 Кбит/сек
Каналы : 6 каналов
Расположение каналов : Front: L C R, Side: L R, LFE
Частота : 48,0 КГц
Битовая глубина : 16 бит
Метод сжатия : С потерями
Задержка видео : 25 с.
Размер потока : 269 Мбайт (4%)
Заголовок : Дубляж (iTunes)
Язык : Russian
Default : Да
Forced : Нет
Аудио #2
Идентификатор : 3
Формат : AC-3
Формат/Информация : Audio Coding 3
Расширение режима : CM (complete main)
Параметр Endianness формата : Big
Идентификатор кодека : A_AC3
Продолжительность : 1 ч. 37 м.
Вид битрейта : Постоянный
Битрейт : 384 Кбит/сек
Каналы : 6 каналов
Расположение каналов : Front: L C R, Side: L R, LFE
Частота : 48,0 КГц
Битовая глубина : 16 бит
Метод сжатия : С потерями
Размер потока : 269 Мбайт (4%)
Заголовок : Eng
Язык : English
Default : Нет
Forced : Нет
Текст
Идентификатор : 4
Формат : UTF-8
Идентификатор кодека : S_TEXT/UTF8
Идентификатор кодека/Информация : UTF-8 Plain Text
Язык : English
Default : Нет
Forced : Нет
Меню
00:00:00.000 : en:1
00:05:50.000 : en:2
00:09:54.000 : en:3
00:14:06.000 : en:4
00:18:15.000 : en:5
00:23:56.000 : en:6
00:27:58.000 : en:7
00:32:20.000 : en:8
00:38:15.000 : en:9
00:41:41.000 : en:10
00:45:07.000 : en:11
00:51:32.000 : en:12
00:54:22.000 : en:13
01:01:28.000 : en:14
01:05:37.000 : en:15
01:09:27.000 : en:16
01:15:56.000 : en:17
01:19:54.000 : en:18
01:27:06.000 : en:19
01:33:21.000 : en:20

Релиз подготовлен 60 - fps

[Цитировать]
mimok

опять халява Хитренький

[Цитировать]
ENIGMA

Благодарю Молюсь
 
Показать сообщения:    

Текущее время: 21-Сен 11:37

Часовой пояс: UTC + 3


Вы не можете начинать темы
Вы не можете отвечать на сообщения
Вы не можете редактировать свои сообщения
Вы не можете удалять свои сообщения
Вы не можете голосовать в опросах
Вы не можете прикреплять файлы к сообщениям
Вы не можете скачивать файлы