«After life there is more. The end is just the beginning»- Информация
Название: Куда приводят мечты
Оригинальное название: What Dreams May Come
Год выхода: 1998
Жанр: Фэнтези, драма, мелодрама
Режиссер: Винсент Уорд
Сценарий: Роналд Бэсс, Ричард Мэтисон
Продюсер: Барнет Бэйн, Роналд Бэсс, Алан С. Бломквист
В ролях: Робин Уильямс, Кьюба Гудинг мл., Аннабелла Шиорра, Макс фон Сюдов, Джессика Брукс Грант, Джош Пэддок, Розалинд Чао, Люсинда Дженни, Мэгги МакКарти, Уильма Бонет
--Сюжет:
После гибели Криса Нилсена в автокатастрофе он, обретя бессмертие, пытается остаться рядом со своей прекрасной, но смертной женой Энни. С помощью дружественного духа, приставленного к нему в качестве проводника, он начинает привыкать к своему новому существованию в окружении, которое иначе как райским не назовешь. Но когда его обезумевшая от горя жена кончает жизнь самоубийством, ее проклинают и навечно изгоняют в ад. Крис изо всех сил пытается отыскать любимую, чтобы всегда быть с ней, но еще никому и никогда не удавалось спасти грешную душу от ужасного, но заслуженного возмездия. Благодаря помощи своих небесных друзей Крис отправляется в самое опасное и мучительное путешествие в своей жизни, точнее, в жизни после смерти.- Страна: США, Новая Зеландия
Продолжительность: 01:53:44

Файл
Кодек: MPEG4/ISO/AVC H.264
Формат: MKV
Качество: BDRip 720p | 60 fps
Видео: 1280x544 | 59.940 fps | 4.9 Мбит/сек
Аудио 1: AC3 | 5.1 | 48 kHz | 448 kbps | 16 bit | Дубляж |
Аудио 2: AC3 | 5.1 | 48 kHz | 448 kbps | 16 bit | ENG |
Субтитры: Русские | Полные, Английские | Полные

MedifInfo

Video
ID : 1
Format : AVC
Format/Info : Advanced Video Codec
Format profile : High@L4.1
Format settings, CABAC : Yes
Format settings, ReFrames : 9 frames
Codec ID : V_MPEG4/ISO/AVC
Duration : 1h 53mn
Bit rate : 4 980 Kbps
Width : 1 280 pixels
Height : 544 pixels
Display aspect ratio : 2.35:1
Frame rate mode : Constant
Frame rate : 59.880 fps
Original frame rate : 59.940 fps
Color space : YUV
Chroma subsampling : 4:2:0
Bit depth : 8 bits
Scan type : Progressive
Bits/(Pixel*Frame) : 0.119
Stream size : 3.85 GiB (83%)
Writing library : x264 core 130 r2273 b3065e6
Encoding settings : cabac=1 / ref=9 / deblock=1:0:0 / analyse=0x3:0x133 / me=umh / subme=10 / psy=1 / psy_rd=1.00:0.10 / mixed_ref=1 / me_range=28 / chroma_me=1 / trellis=2 / 8x8dct=1 / cqm=0 / deadzone=21,11 / fast_pskip=0 / chroma_qp_offset=-3 / threads=12 / lookahead_threads=1 / sliced_threads=0 / nr=0 / decimate=1 / interlaced=0 / bluray_compat=0 / constrained_intra=0 / bframes=5 / b_pyramid=2 / b_adapt=2 / b_bias=0 / direct=3 / weightb=1 / open_gop=0 / weightp=2 / keyint=250 / keyint_min=25 / scenecut=40 / intra_refresh=0 / rc=2pass / mbtree=0 / bitrate=4980 / ratetol=1.0 / qcomp=0.60 / qpmin=0 / qpmax=69 / qpstep=4 / cplxblur=20.0 / qblur=0.5 / ip_ratio=1.40 / pb_ratio=1.30 / aq=1:1.00
Language : English
Default : Yes
Forced : No
Audio #1
ID : 2
Format : AC-3
Format/Info : Audio Coding 3
Mode extension : CM (complete main)
Format settings, Endianness : Big
Codec ID : A_AC3
Duration : 1h 53mn
Bit rate mode : Constant
Bit rate : 448 Kbps
Channel(s) : 6 channels
Channel positions : Front: L C R, Side: L R, LFE
Sampling rate : 48.0 KHz
Bit depth : 16 bits
Compression mode : Lossy
Stream size : 364 MiB (8%)
Title : Dub
Language : Russian
Default : Yes
Forced : No
Audio #2
ID : 3
Format : AC-3
Format/Info : Audio Coding 3
Mode extension : CM (complete main)
Format settings, Endianness : Big
Codec ID : A_AC3
Duration : 1h 53mn
Bit rate mode : Constant
Bit rate : 448 Kbps
Channel(s) : 6 channels
Channel positions : Front: L C R, Side: L R, LFE
Sampling rate : 48.0 KHz
Bit depth : 16 bits
Compression mode : Lossy
Stream size : 364 MiB (8%)
Title : Eng
Language : English
Default : No
Forced : No
Text #1
ID : 4
Format : UTF-8
Codec ID : S_TEXT/UTF8
Codec ID/Info : UTF-8 Plain Text
Title : full
Language : Russian
Default : No
Forced : No
Text #2
ID : 5
Format : UTF-8
Codec ID : S_TEXT/UTF8
Codec ID/Info : UTF-8 Plain Text
Title : full
Language : English
Default : No
Forced : No
Menu
00:00:00.000 : :Chapter 01
00:04:59.632 : :Chapter 02
00:07:43.921 : :Chapter 03
00:12:49.101 : :Chapter 04
00:20:04.870 : :Chapter 05
00:24:35.432 : :Chapter 06
00:34:14.844 : :Chapter 07
00:42:08.192 : :Chapter 08
00:51:35.717 : :Chapter 09
00:57:18.435 : :Chapter 10
01:00:12.942 : :Chapter 11
01:04:32.743 : :Chapter 12
01:13:40.541 : :Chapter 13
01:20:04.257 : :Chapter 14
01:23:17.367 : :Chapter 15
01:27:38.002 : :Chapter 16
01:35:24.009 : :Chapter 17
01:43:37.669 : :Chapter 18
01:46:01.354 : :Chapter 19
01:53:43.566 : :Chapter 20

[Цитировать]
ENIGMA

Спасибо за этот Шедевр в 60 fps!!!

[Цитировать]
Edik

Хороший фильм жаль,что"тяжелый"!
 
Показать сообщения:    

Текущее время: 02-Дек 21:10

Часовой пояс: UTC + 3


Вы не можете начинать темы
Вы не можете отвечать на сообщения
Вы не можете редактировать свои сообщения
Вы не можете удалять свои сообщения
Вы не можете голосовать в опросах
Вы не можете прикреплять файлы к сообщениям
Вы не можете скачивать файлы