[Цитировать]
Kryl

Куб / Cube (1997)

«Изоляция, паника, ужас... есть ли выход...»- Информация
Название: Куб
Оригинальное название: Cube
Год выхода: 1997
Жанр: фантастика, триллер, детектив
Режиссер: Винченцо Натали
Сценарий: Андре Бьелич, Винченцо Натали, Грэм Мэнсон
Продюсер: Мера Мех, Бетти Орр, Колин Брантон
В ролях: Николь Де Бур, Никки Гуаданьи, Дэвид Хьюлет, Эндрю Миллер, Джулиан Ричингс, Уэйн Робсон, Морис Дин Винт...
--Сюжет:
Группа людей, которые никак друг с другом не связаны, неизвестным образом внезапно оказываются в странной кубической комнате, каждая грань которой снабжена люком, ведущим в другую такую же комнату. Единственная разница между комнатами — это их цвет и наличие разнообразных смертоносных ловушек. Совместными усилиями эти пятеро пытаются найти ключ к выходу из этого гигантского сооружения.- - Страна: Канада
Продолжительность: 01:30:17

Файл
Кодек: MPEG4/ISO/AVC H.264
Формат: MKV
Качество: BDRip-AVC 60 fps
Видео: 1024x560 (16:9) | 60.000 fps | 5.1 Мбит/сек
Аудио: AC3 | 5.1 | 48 kHz | 640 kbps | 16 bit | Профессиональный (многоголосый) |
Субтитры: русские (Полные), английские (Полные)

MedifInfo

Video
ID : 1
Format : AVC
Format/Info : Advanced Video Codec
Format profile : High@L4.1
Format settings, CABAC : Yes
Format settings, ReFrames : 4 frames
Codec ID : V_MPEG4/ISO/AVC
Duration : 1h 30mn
Bit rate : 5 100 Kbps
Width : 1 024 pixels
Height : 560 pixels
Display aspect ratio : 16:9
Frame rate : 60.000 fps
Color space : YUV
Chroma subsampling : 4:2:0
Bit depth : 8 bits
Scan type : Progressive
Bits/(Pixel*Frame) : 0.148
Stream size : 3.14 GiB (87%)
Title : Tiberiumsun69
Writing library : x264 core 146 r2538 121396c
Encoding settings : cabac=1 / ref=3 / deblock=1:0:0 / analyse=0x3:0x113 / me=umh / subme=9 / psy=1 / psy_rd=1.00:0.10 / mixed_ref=1 / me_range=32 / chroma_me=1 / trellis=2 / 8x8dct=1 / cqm=0 / deadzone=21,11 / fast_pskip=0 / chroma_qp_offset=-3 / threads=12 / lookahead_threads=3 / sliced_threads=0 / nr=0 / decimate=1 / interlaced=0 / bluray_compat=0 / constrained_intra=0 / bframes=16 / b_pyramid=2 / b_adapt=2 / b_bias=0 / direct=3 / weightb=1 / open_gop=0 / weightp=2 / keyint=600 / keyint_min=60 / scenecut=40 / intra_refresh=0 / rc_lookahead=40 / rc=2pass / mbtree=0 / bitrate=5100 / ratetol=1.0 / qcomp=0.60 / qpmin=0 / qpmax=69 / qpstep=4 / cplxblur=20.0 / qblur=0.5 / vbv_maxrate=14000 / vbv_bufsize=14000 / nal_hrd=none / filler=0 / ip_ratio=1.40 / pb_ratio=1.30 / aq=1:1.00
Language : English
Default : Yes
Forced : No
Audio
ID : 2
Format : AC-3
Format/Info : Audio Coding 3
Mode extension : CM (complete main)
Codec ID : A_AC3
Duration : 1h 30mn
Bit rate mode : Constant
Bit rate : 640 Kbps
Channel(s) : 6 channels
Channel positions : Front: L C R, Side: L R, LFE
Sampling rate : 48.0 KHz
Bit depth : 16 bits
Compression mode : Lossy
Stream size : 413 MiB (11%)
Title : Многоголосый, закадровый
Language : Russian
Default : Yes
Forced : No
Text #1
ID : 3
Format : UTF-8
Codec ID : S_TEXT/UTF8
Codec ID/Info : UTF-8 Plain Text
Title : Полные
Language : Russian
Default : No
Forced : No
Text #2
ID : 4
Format : UTF-8
Codec ID : S_TEXT/UTF8
Codec ID/Info : UTF-8 Plain Text
Title : Полные
Language : English
Default : No
Forced : No
Menu
00:00:00.000 : en:Chapter 1
00:03:52.416 : en:Chapter 2
00:12:17.958 : en:Chapter 3
00:21:55.916 : en:Chapter 4
00:29:09.083 : en:Chapter 5
00:44:16.458 : en:Chapter 6
00:50:59.666 : en:Chapter 7
00:57:46.625 : en:Chapter 8
01:06:59.125 : en:Chapter 9
01:13:38.625 : en:Chapter 10
01:20:06.791 : en:Chapter 11
01:25:04.916 : en:Chapter 12

Куб 2: Гиперкуб / Cube 2: Hypercube (2002)

«The first one had rules»- Информация
Название: Куб 2: Гиперкуб
Оригинальное название: Cube 2: Hypercube
Год выхода: 2002
Жанр: фантастика, триллер, детектив
Режиссер: Анджей Секула
Сценарий: Шон Худ, Эрни Барбараш, Лорен МакЛафлин
Продюсер: Эрни Барбараш, Питер Блок, Сюзанн Колвин
В ролях: Кэри Матчетт, Жерен Вин Дэйвис, Грэйс Линн Кунг, Мэттью Фергюсон, Нил Кроун, Барбара Гордон
--Сюжет:
Таинственный гиперкуб, загадочное творение безумного гения, вновь наполняется невинными жертвами. Восемь незнакомцев очутились в странных комнатах, где действуют лишь законы четвертого измерения, играющие злые шутки с пространством и временем.
В отчаянии, пытаясь найти выход из запятнанного кровью лабиринта, где любой неосторожный шаг равносилен самоубийству, они вскоре понимают, что сумеют выжить, только если разгадают все тайны гигантской мозаики смертоносных ловушек, прежде чем она распадется на части вместе со своими пленниками.
- - Страна: Канада
Продолжительность: 01:30:17

Файл
Кодек: MPEG4/ISO/AVC H.264
Формат: MKV
Качество: HDTVRip-AVC 60 fps
Видео: 1024x568 (16:9) | 60.000 fps | 5.2 Мбит/сек
Аудио: AC3 | 5.1 | 48 kHz | 640 kbps | 16 bit | Профессиональный (многоголосый) |
Субтитры: русские (Полные), английские (Полные)

MedifInfo

Video
ID : 1
Format : AVC
Format/Info : Advanced Video Codec
Format profile : High@L4.1
Format settings, CABAC : Yes
Format settings, ReFrames : 4 frames
Codec ID : V_MPEG4/ISO/AVC
Duration : 1h 30mn
Bit rate : 5 200 Kbps
Width : 1 024 pixels
Height : 568 pixels
Display aspect ratio : 16:9
Frame rate : 60.000 fps
Color space : YUV
Chroma subsampling : 4:2:0
Bit depth : 8 bits
Scan type : Progressive
Bits/(Pixel*Frame) : 0.149
Stream size : 3.21 GiB (87%)
Title : Tiberiumsun69
Writing library : x264 core 146 r2538 121396c
Encoding settings : cabac=1 / ref=3 / deblock=1:0:0 / analyse=0x3:0x113 / me=umh / subme=9 / psy=1 / psy_rd=1.00:0.10 / mixed_ref=1 / me_range=32 / chroma_me=1 / trellis=2 / 8x8dct=1 / cqm=0 / deadzone=21,11 / fast_pskip=0 / chroma_qp_offset=-3 / threads=12 / lookahead_threads=3 / sliced_threads=0 / nr=0 / decimate=1 / interlaced=0 / bluray_compat=0 / constrained_intra=0 / bframes=16 / b_pyramid=2 / b_adapt=2 / b_bias=0 / direct=3 / weightb=1 / open_gop=0 / weightp=2 / keyint=600 / keyint_min=60 / scenecut=40 / intra_refresh=0 / rc_lookahead=40 / rc=2pass / mbtree=0 / bitrate=5200 / ratetol=1.0 / qcomp=0.60 / qpmin=0 / qpmax=69 / qpstep=4 / cplxblur=20.0 / qblur=0.5 / vbv_maxrate=14000 / vbv_bufsize=14000 / nal_hrd=none / filler=0 / ip_ratio=1.40 / pb_ratio=1.30 / aq=1:1.00
Language : English
Default : Yes
Forced : No
Audio
ID : 2
Format : AC-3
Format/Info : Audio Coding 3
Mode extension : CM (complete main)
Codec ID : A_AC3
Duration : 1h 30mn
Bit rate mode : Constant
Bit rate : 640 Kbps
Channel(s) : 6 channels
Channel positions : Front: L C R, Side: L R, LFE
Sampling rate : 48.0 KHz
Bit depth : 16 bits
Compression mode : Lossy
Stream size : 413 MiB (11%)
Title : Многоголосый, закадровый
Language : Russian
Default : Yes
Forced : No
Text #1
ID : 3
Format : UTF-8
Codec ID : S_TEXT/UTF8
Codec ID/Info : UTF-8 Plain Text
Title : Полные
Language : Russian
Default : No
Forced : No
Text #2
ID : 4
Format : UTF-8
Codec ID : S_TEXT/UTF8
Codec ID/Info : UTF-8 Plain Text
Title : Полные
Language : English
Default : No
Forced : No

Куб Зеро / Cube Zero (2004)

«Пришло время узнать тайну куба»- Информация
Название: Куб Зеро
Оригинальное название: Cube Zero
Год выхода: 2004
Жанр: фантастика, триллер, детектив
Режиссер: Эрни Барбараш
Сценарий: Эрни Барбараш
Продюсер: Эрни Барбараш, Дэннис Берарди, Питер Блок
В ролях: Захари Беннетт, Дэвид Хубанд, Стефани Мур, Мартин Роуч, Терри Хоукс, Ричард МакМиллан, Майк «Наг» Наганд, Тони Манч, Майкл Райли, Джошуа Пиис
--Сюжет:Приквел культового философско-фантастического фильма «Куб»! Любой кошмар имеет начало. Молодой человек, в чьи обязанности входит приглядывать за Кубом — чудовищным изобретением человечества, замечает невинную женщину, попавшую в ловушку в одной из комнат куба и, решает попытаться спасти ее, несмотря на смертельную опасность, поджидающую любого, кто окажется внутри…
- - Страна: Канада, США
Продолжительность: 01:33:29

Файл
Кодек: MPEG4/ISO/AVC H.264
Формат: MKV
Качество: HDTVRip-AVC 60 fps
Видео: 1024x576 (16:9) | 60.000 fps | 5.3 Мбит/сек
Аудио: AC3 | 5.1 | 48 kHz | 384 kbps | 16 bit | Профессиональный (многоголосый) |
Субтитры: русские (Полные)

MedifInfo

Video
ID : 1
Format : AVC
Format/Info : Advanced Video Codec
Format profile : High@L4.1
Format settings, CABAC : Yes
Format settings, ReFrames : 4 frames
Codec ID : V_MPEG4/ISO/AVC
Duration : 1h 33mn
Bit rate : 5 300 Kbps
Width : 1 024 pixels
Height : 576 pixels
Display aspect ratio : 16:9
Frame rate : 60.000 fps
Color space : YUV
Chroma subsampling : 4:2:0
Bit depth : 8 bits
Scan type : Progressive
Bits/(Pixel*Frame) : 0.150
Stream size : 3.39 GiB (91%)
Title : Tiberiumsun69
Writing library : x264 core 146 r2538 121396c
Encoding settings : cabac=1 / ref=3 / deblock=1:0:0 / analyse=0x3:0x113 / me=umh / subme=9 / psy=1 / psy_rd=1.00:0.10 / mixed_ref=1 / me_range=32 / chroma_me=1 / trellis=2 / 8x8dct=1 / cqm=0 / deadzone=21,11 / fast_pskip=0 / chroma_qp_offset=-3 / threads=12 / lookahead_threads=3 / sliced_threads=0 / nr=0 / decimate=1 / interlaced=0 / bluray_compat=0 / constrained_intra=0 / bframes=16 / b_pyramid=2 / b_adapt=2 / b_bias=0 / direct=3 / weightb=1 / open_gop=0 / weightp=2 / keyint=600 / keyint_min=60 / scenecut=40 / intra_refresh=0 / rc_lookahead=40 / rc=2pass / mbtree=0 / bitrate=5300 / ratetol=1.0 / qcomp=0.60 / qpmin=0 / qpmax=69 / qpstep=4 / cplxblur=20.0 / qblur=0.5 / vbv_maxrate=14000 / vbv_bufsize=14000 / nal_hrd=none / filler=0 / ip_ratio=1.40 / pb_ratio=1.30 / aq=1:1.00
Language : English
Default : Yes
Forced : No
Audio
ID : 2
Format : AC-3
Format/Info : Audio Coding 3
Mode extension : CM (complete main)
Codec ID : A_AC3
Duration : 1h 33mn
Bit rate mode : Constant
Bit rate : 384 Kbps
Channel(s) : 6 channels
Channel positions : Front: L C R, Side: L R, LFE
Sampling rate : 48.0 KHz
Bit depth : 16 bits
Compression mode : Lossy
Delay relative to video : 8ms
Stream size : 257 MiB (7%)
Title : Многоголосый, закадровый
Language : Russian
Default : Yes
Forced : No
Text
ID : 3
Format : UTF-8
Codec ID : S_TEXT/UTF8
Codec ID/Info : UTF-8 Plain Text
Title : Полные
Language : Russian
Default : No
Forced : No
[60-fps.org].t1578.torrent
Торрент: Зарегистрирован [ 2015-11-08 13:17 ] · A5D62608EDA09DAB05177C9832B47EFC0B5E552C

Скачать .torrent

Скачать

56 KB

Статус: проверено
Скачан: 95 раз
Поблагодарили:
Размер: 11,01 GB
 
Похожие Темы


Последний раз редактировалось: Kryl (2016-07-30 09:18), всего редактировалось 1 раз
 
Показать сообщения:    

Текущее время: 25-Фев 18:51

Часовой пояс: UTC + 3


Вы не можете начинать темы
Вы не можете отвечать на сообщения
Вы не можете редактировать свои сообщения
Вы не можете удалять свои сообщения
Вы не можете голосовать в опросах
Вы не можете прикреплять файлы к сообщениям
Вы можете скачивать файлы