Агент Ева / Ava (2020) BDRip 1080p | 60 fps Властелин колец: Трилогия / The Lord of the Rings: Trilogy (2001-2003) BDRip-AVC | Extended Cut | 60 fps Пятый элемент / The Fifth Element (1997) BDRip 1080p | 60 fps Форпост / The Outpost (2020) BDRip 1080p | 60 fps Поезд смерти / D-Railed (2018) BDRip 1080p | 60 fps Охота / The Hunt (2020) BDRip 1080p | 60 fps Вивариум / Vivarium (2019) BDRip 720p | 60 fps Ультрафиолет / Ultraviolet (2006) BDRip 1080p | 60 fps
  1. bot

    Longevity:
    6 years 4 months
    Posts:
    410
    Gender:
    Unknown
    «Напарников не выбирают»- Информация
    Название: Крутые меры
    Оригинальное название: Bastille Day
    Год выхода: 2016
    Жанр: Боевик, драма
    Режиссер: Джеймс Уоткинс
    Сценарий: Эндрю Болдуин, Джеймс Уоткинс
    Продюсер: Бард Доррос, Фабрис Джанферми, Стив Голин
    В ролях: Идрис Эльба, Ричард Мэдден, Келли Райлли, Шарлотта Ле Бон, Анатол Юсеф, Хорхе Леон Мартинес, Карл Фаррер, Хосе Гарсиа, Александр Купер, Эрик Эбони
    --Сюжет:
    Ловкий карманник Майкл Мэйсон привлекает внимание полиции и спецслужб, когда крадет сумку, содержащую гораздо больше, чем просто бумажник. На его след выходит дерзкий и резкий спецагент ЦРУ Шон Брайар. Вдвоем они становятся мишенью тайной преступной организации и в течение суток должны вывести злоумышленников на чистую воду.- Страна: Великобритания, Франция, США
    Продолжительность: 01:31:48

    Файл
    Кодек: MPEG4/ISO/AVC/H.264
    Формат: MKV
    Качество: BDRip 1080 | 60 fps
    Видео: 1920х800 | 60.000 fps | 10.0 Мбит/сек
    Аудио: AC-3 | 5.1 | 48 kHz | 384 kbps | 16 bit | Дубляж - iTunes |

    MedifInfo

    Video
    ID : 1
    Format : AVC
    Format/Info : Advanced Video Codec
    Format profile : [email protected]
    Format settings, CABAC : Yes
    Format settings, ReFrames : 4 frames
    Codec ID : V_MPEG4/ISO/AVC
    Duration : 1 h 31 min
    Bit rate : 10 000 kb/s
    Width : 1 920 pixels
    Height : 800 pixels
    Display aspect ratio : 2.40:1
    Frame rate mode : Constant
    Frame rate : 60.000 FPS
    Color space : YUV
    Chroma subsampling : 4:2:0
    Bit depth : 8 bits
    Scan type : Progressive
    Bits/(Pixel*Frame) : 0.109
    Stream size : 6.40 GiB (96%)
    Title : GTP
    Writing library : x264 core 146 r2538 121396c
    Encoding settings : cabac=1 / ref=4 / deblock=1:0:0 / analyse=0x3:0x113 / me=umh / subme=9 / psy=1 / psy_rd=1.00:0.01 / mixed_ref=1 / me_range=32 / chroma_me=1 / trellis=2 / 8x8dct=1 / cqm=0 / deadzone=21,11 / fast_pskip=0 / chroma_qp_offset=-3 / threads=12 / lookahead_threads=3 / sliced_threads=0 / nr=0 / decimate=1 / interlaced=0 / bluray_compat=0 / constrained_intra=0 / bframes=16 / b_pyramid=2 / b_adapt=2 / b_bias=0 / direct=3 / weightb=1 / open_gop=0 / weightp=2 / keyint=600 / keyint_min=60 / scenecut=40 / intra_refresh=0 / rc_lookahead=40 / rc=2pass / mbtree=0 / bitrate=10000 / ratetol=1.0 / qcomp=0.60 / qpmin=0 / qpmax=69 / qpstep=4 / cplxblur=20.0 / qblur=0.5 / vbv_maxrate=14000 / vbv_bufsize=14000 / nal_hrd=none / filler=0 / ip_ratio=1.40 / pb_ratio=1.30 / aq=1:1.00
    Language : English
    Default : Yes
    Forced : No
    Audio
    ID : 2
    Format : AC-3
    Format/Info : Audio Coding 3
    Mode extension : CM (complete main)
    Format settings, Endianness : Big
    Codec ID : A_AC3
    Duration : 1 h 31 min
    Bit rate mode : Constant
    Bit rate : 384 kb/s
    Channel(s) : 6 channels
    Channel positions : Front: L C R, Side: L R, LFE
    Sampling rate : 48.0 kHz
    Frame rate : 31.250 FPS (1536 spf)
    Compression mode : Lossy
    Stream size : 252 MiB (4%)
    Title : Dub [iTunes]
    Language : Russian
    Default : Yes
    Forced : No
    Menu
    00:00:00.000 : en:00:00:00.000
    00:08:06.625 : en:00:08:06.625
    00:16:39.833 : en:00:16:39.833
    00:24:20.625 : en:00:24:20.625
    00:33:04.625 : en:00:33:04.625
    00:41:03.625 : en:00:41:03.625
    00:48:37.625 : en:00:48:37.625
    00:57:03.417 : en:00:57:03.417
    01:07:59.000 : en:01:07:59.000
    01:16:54.625 : en:01:16:54.625
    01:21:43.000 : en:01:21:43.000
    01:25:26.833 : en:01:25:26.833
  2. Longevity:
    5 years 6 months
    Posts:
    149
    Gender:
    Male
    Спасибо Овации
  3. Longevity:
    2 years 5 months
    Posts:
    5
    Gender:
    Unknown
    не качает
    31-Mar-2020 18:55 (after 3 years 5 months)
  4. Longevity:
    2 years 5 months
    Posts:
    5
    Gender:
    Unknown
    спасибо!! все хорошо
    31-Mar-2020 18:57 (after 2 minutes)


You cannot post new topics in this forum
You cannot reply to topics in this forum
You cannot edit your posts in this forum
You cannot delete your posts in this forum
You cannot vote in polls in this forum
You cannot attach files in this forum
You cannot download files in this forum