Чёрная Пантера / Black Panther (2018) BDRip 1080p | 60 fps Ночные игры / Game Night (2018) BDRip 720p | 60 fps Красный воробей / Red Sparrow (2018) BDRip 720p | 60 fps Титан / The Titan (2018) BDRip 1080p | 60 fps Кровоточащая сталь / Ji qi zhi xue (2017) BDRip 720p | 60 fps Чёрная Пантера / Black Panther (2018) BDRip 720p | 60 fps Поезд на Париж / The 15:17 to Paris (2018) BDRip 720p | 60 fps Аннигиляция / Annihilation (2018) BDRip 1080p | 60 fps
  1. Стаж:
    3 года 7 месяцев
    Сообщений:
    2330
    Пол:
    Мужской
    Информация
    Название: Кровоточащая сталь
    Оригинальное название: Ji qi zhi xue / Bleeding Steel
    Год выхода: 2017
    Жанр: Фантастика, боевик, триллер
    Режиссер: Чжан Лицзя
    Сценарий: Цуй Сывэй, Эрика Сяхоу
    Продюсер: Пол Карри, Лю Кайло
    В ролях: Джеки Чан, Каллэн Мулвей, Тесс Хобрич, Дэмиен Гарви, Ким Джинджелл, Ольга Миллер, Шоу Ло, Оу Ян Нана, Брахим Ачаббаке, Темур Мамисашвили, Брендан Бирн, Эрика Сяхоу

    Сюжет:
    Агент спецслужбы Китая ведёт жёсткую борьбу с мафией. Он всеми силами пытается обезвредить главаря, а затем и всю преступную группировку. Члены банды отмывают огромные деньги преступным путём. Они ни придерживаются никаких норм морали и идут на самые жестокие преступления: грабежи, разбои, убийства, торговля наркотиками ради наживы. За бандитами долгое время вели пристальное наблюдение и охоту множество полицейских, но никому так и не удалось разоблачить их. Преступники по-прежнему продолжали творить свой беспредел. За дело берётся лучший агент спецслужб. Во время очередного жестокого преступления, агент чудом спасает незнакомую девушку оказавшуюся невольным свидетелем страшного происшествия. Но девушку увидели преступники, ей грозит большая опасность. Доблестный полицейский берётся помогать свидетельнице преступления скрыться от бандитов. Познакомившись с девушкой поближе агент смутно понимает, что где-то с ней уже встречался, но как он, ни пытается, не может вспомнить, где же мог её видеть. Полицейского постоянно преследует мысль о незнакомке, которую он пытается спасти от смерти, ему даже кажется, что они встречались в прошлой жизни.

    Страна: Китай, Гонконг
    Продолжительность: 01:50:07

    Файл
    Кодек: H.264
    Формат: MKV
    Качество: BDRip 720p | 60 fps
    Видео: 1280 x 532 (2.406) | 60.000 fps | 10.0 Мбит/сек
    Аудио 01: AC3 | 2.0 | 48 kHz | 192 kbps | 16 bit | Любительский многоголосый - Студия "Paradox" & Omskbird records |
    Аудио 02: AC3 | 2.0 | 48 kHz | 192 kbps | 16 bit | Любительский многоголосый - Ворон, Wenlana, Skys, Azazel |
    Аудио 03: AC3 | 5.1 | 48 kHz | 448 kbps | 16 bit | english |
    Субтитры: Русские, английские

    MedifInfo

    Видео
    Идентификатор : 1
    Формат : AVC
    Формат/Информация : Advanced Video Codec
    Профиль формата : High@L4.1
    Параметр CABAC формата : Да
    Параметр ReFrames формата : 3 кадра
    Идентификатор кодека : V_MPEG4/ISO/AVC
    Продолжительность : 1 ч. 50 м.
    Вид битрейта : Переменный
    Битрейт : 9589 Кбит/сек
    Максимальный битрейт : 10000 Кбит/сек
    Ширина : 1280 пикселей
    Высота : 532 пикселя
    Соотношение сторон : 2,40:1
    Режим частоты кадров : Постоянный
    Частота кадров : 59,880 кадров/сек
    Частота кадров в оригинале : 59,940 кадров/сек
    Стандарт вещания : PAL
    Цветовое пространство : YUV
    Субдискретизация насыщенности : 4:2:0
    Битовая глубина : 8 бит
    Тип развёртки : Прогрессивная
    Бит/(Пиксели*Кадры) : 0.235
    Размер потока : 7,38 Гбайт (90%)
    Заголовок : www.60-fps.org
    Язык : English
    Default : Да
    Forced : Нет
    Основные цвета : BT.601 NTSC
    Характеристики трансфера : BT.601
    Коэффициенты матрицы : BT.601
    colour_range : Limited
    Аудио #1
    Идентификатор : 2
    Формат : AC-3
    Формат/Информация : Audio Coding 3
    Расширение режима : CM (complete main)
    Параметр Endianness формата : Big
    Идентификатор кодека : A_AC3
    Продолжительность : 1 ч. 50 м.
    Вид битрейта : Постоянный
    Битрейт : 192 Кбит/сек
    Каналы : 2 канала
    Расположение каналов : Front: L R
    Частота : 48,0 КГц
    Битовая глубина : 16 бит
    Метод сжатия : С потерями
    Размер потока : 151 Мбайт (2%)
    Заголовок : Любительский многоголосый - Студия "Paradox" & Omskbird records
    Язык : Russian
    Default : Да
    Forced : Нет
    Аудио #2
    Идентификатор : 3
    Формат : AC-3
    Формат/Информация : Audio Coding 3
    Расширение режима : CM (complete main)
    Параметр Endianness формата : Big
    Идентификатор кодека : A_AC3
    Продолжительность : 1 ч. 50 м.
    Вид битрейта : Постоянный
    Битрейт : 192 Кбит/сек
    Каналы : 2 канала
    Расположение каналов : Front: L R
    Частота : 48,0 КГц
    Битовая глубина : 16 бит
    Метод сжатия : С потерями
    Размер потока : 151 Мбайт (2%)
    Заголовок : Любительский многоголосый - Ворон, Wenlana, Skys, Azazel
    Язык : Russian
    Default : Нет
    Forced : Нет
    Аудио #3
    Идентификатор : 4
    Формат : AC-3
    Формат/Информация : Audio Coding 3
    Расширение режима : CM (complete main)
    Параметр Endianness формата : Big
    Идентификатор кодека : A_AC3
    Продолжительность : 1 ч. 50 м.
    Вид битрейта : Постоянный
    Битрейт : 448 Кбит/сек
    Каналы : 6 каналов
    Расположение каналов : Front: L C R, Side: L R, LFE
    Частота : 48,0 КГц
    Битовая глубина : 16 бит
    Метод сжатия : С потерями
    Размер потока : 353 Мбайт (4%)
    Заголовок : english
    Язык : English
    Default : Нет
    Forced : Нет
    Текст #1
    Идентификатор : 5
    Формат : UTF-8
    Идентификатор кодека : S_TEXT/UTF8
    Идентификатор кодека/Информация : UTF-8 Plain Text
    Заголовок : Full
    Язык : Russian
    Default : Нет
    Forced : Нет
    Текст #2
    Идентификатор : 6
    Формат : UTF-8
    Идентификатор кодека : S_TEXT/UTF8
    Идентификатор кодека/Информация : UTF-8 Plain Text
    Заголовок : Full
    Язык : English
    Default : Нет
    Forced : Нет
    Меню
    00:00:00.000 : en:00:00:00.000
    00:07:42.879 : en:00:07:42.879
    00:18:16.178 : en:00:18:16.178
    00:26:08.692 : en:00:26:08.692
    00:35:25.123 : en:00:35:25.123
    00:45:17.632 : en:00:45:17.632
    00:51:54.320 : en:00:51:54.320
    01:00:07.938 : en:01:00:07.938
    01:09:18.738 : en:01:09:18.738
    01:17:45.369 : en:01:17:45.369
    01:26:30.102 : en:01:26:30.102
    01:39:26.460 : en:01:39:26.460

    Релиз подготовлен 60 - fps



Вы не можете начинать темы
Вы не можете отвечать на сообщения
Вы не можете редактировать свои сообщения
Вы не можете удалять свои сообщения
Вы не можете голосовать в опросах
Вы не можете прикреплять файлы к сообщениям
Вы не можете скачивать файлы