[Цитировать]
Kryl

«A Father Makes His Own Justice»- Информация
Название: Кровный отец
Оригинальное название: Blood Father
Год выхода: 2016
Жанр: Боевик, триллер
Режиссер: Жан-Франсуа Рише
Сценарий: Питер Крэйг, Андреа Берлофф
Продюсер: Крис Бриггс, Паскаль Кочето, Питер Крэйг
В ролях: Мэл Гибсон, Эрин Мориарти, Диего Луна, Майкл Паркс, Уильям Х. Мэйси, Мигель Сандовал, Дейл Дикки, Ричард Кебрал, Дэниэл Монкада, Райан Дорси
--Сюжет:

17-летняя девушка попадает в серьёзные неприятности, и теперь за ней охотятся убийцы наркокартеля. Из близких у неё только отец — завязавший алкоголик и бывший заключённый, который даже особо не видел свою дочь и не принимал участия в её воспитании. Но родственников не выбирают, и девушке приходится обратиться к нему за помощью.
- Страна: Франция
Продолжительность: 01:28:12

Файл
Кодек: MPEG4/ISO/AVC/H.264
Формат: MKV
Качество: BDRip 720p | 60 fps
Видео: 1280 x 536 (2.388) | 60.000 fps | 8.0 Мбит/сек
Аудио 1: AC3 | 5.1 | 48 kHz | 640 kbps | 16 bit | Любительский многоголосый закадровый | Студия "Paradox" & Omskbird records |
Аудио 2: AC3 | 5.1 | 48 kHz | 640 kbps | 16 bit | ENG |

MedifInfo

Видео
Идентификатор : 1
Формат : AVC
Формат/Информация : Advanced Video Codec
Профиль формата : High@L4.1
Параметр CABAC формата : Да
Параметр ReFrames формата : 3 кадра
Идентификатор кодека : V_MPEG4/ISO/AVC
Продолжительность : 1 ч. 28 м.
Вид битрейта : Переменный
Битрейт : 7660 Кбит/сек
Максимальный битрейт : 8000 Кбит/сек
Ширина : 1280 пикселей
Высота : 536 пикселей
Соотношение сторон : 2,40:1
Режим частоты кадров : Постоянный
Частота кадров : 59,880 кадров/сек
Частота кадров в оригинале : 59,940 кадров/сек
Стандарт вещания : PAL
Цветовое пространство : YUV
Субдискретизация насыщенности : 4:2:0
Битовая глубина : 8 бит
Тип развёртки : Прогрессивная
Бит/(Пиксели*Кадры) : 0.186
Размер потока : 4,72 Гбайт (84%)
Заголовок : www.60-fps.org
Язык : English
Default : Да
Forced : Нет
Основные цвета : BT.601 NTSC
Характеристики трансфера : BT.601
Коэффициенты матрицы : BT.601
colour_range : Limited
Аудио #1
Идентификатор : 2
Формат : AC-3
Формат/Информация : Audio Coding 3
Расширение режима : CM (complete main)
Параметр Endianness формата : Big
Идентификатор кодека : A_AC3
Продолжительность : 1 ч. 28 м.
Вид битрейта : Постоянный
Битрейт : 640 Кбит/сек
Каналы : 6 каналов
Расположение каналов : Front: L C R, Side: L R, LFE
Частота : 48,0 КГц
Битовая глубина : 16 бит
Метод сжатия : С потерями
Размер потока : 404 Мбайт (7%)
Заголовок : MVO - Paradox" & Omskbird records
Язык : Russian
Default : Да
Forced : Да
Аудио #2
Идентификатор : 3
Формат : AC-3
Формат/Информация : Audio Coding 3
Расширение режима : CM (complete main)
Параметр Endianness формата : Big
Идентификатор кодека : A_AC3
Продолжительность : 1 ч. 28 м.
Вид битрейта : Постоянный
Битрейт : 640 Кбит/сек
Каналы : 6 каналов
Расположение каналов : Front: L C R, Side: L R, LFE
Частота : 48,0 КГц
Битовая глубина : 16 бит
Метод сжатия : С потерями
Размер потока : 404 Мбайт (7%)
Заголовок : eng
Default : Нет
Forced : Нет
Меню
00:00:00.000 : en:Chapter 1
00:07:02.797 : en:Chapter 2
00:10:16.741 : en:Chapter 3
00:15:59.583 : en:Chapter 4
00:22:02.195 : en:Chapter 5
00:28:58.695 : en:Chapter 6
00:32:28.946 : en:Chapter 7
00:38:43.112 : en:Chapter 8
00:45:11.583 : en:Chapter 9
00:48:45.839 : en:Chapter 10
00:52:44.369 : en:Chapter 11
00:57:36.327 : en:Chapter 12
01:02:32.707 : en:Chapter 13
01:07:51.734 : en:Chapter 14
01:12:41.607 : en:Chapter 15
01:20:57.560 : en:Chapter 16

Релиз подготовлен 60 - fps

Топик был перенесен из форума Новинки Кино 60 FPS в форум Зарубежные фильмы 60 FPS
Kryl

[Цитировать]
ENIGMA

Спасибо Большое! Овации
Фильм достойной, советую Улыбаюсь

[Цитировать]
Kryl

ENIGMA,
Пожалуйста .
 
Показать сообщения:    

Текущее время: 06-Дек 15:09

Часовой пояс: UTC + 3


Вы не можете начинать темы
Вы не можете отвечать на сообщения
Вы не можете редактировать свои сообщения
Вы не можете удалять свои сообщения
Вы не можете голосовать в опросах
Вы не можете прикреплять файлы к сообщениям
Вы не можете скачивать файлы