[Цитировать]
mimok

Кровавый четверг / Thursday (1998) BDRip 720p | 60fps«They say the past always catches up with you. This could be the day»- Информация о фильме
Название: Кровавый четверг
Оригинальное название: Thursday
Год выхода: 1998
Жанр: Боевик, триллер, драма, комедия, криминал, детектив
Режиссер: Скип Вудс
Продюсер: Алан Пол, В. Марк МакНейр, Кристин Шикс
В ролях: Томас Джейн, Аарон Экхарт, Паулина Поризкова, Джеймс ЛеГро, Пола Маршалл, Майкл Джитер, Гленн Пламмер, Микки Рурк, Люк Хари, Бари К. Уиллерфорд, Ричард Вонг, Шоун Майкл Ховард, Гари Дурдан, Брайан Хукс, Джефф Сандерс, Майкл Д. Олмос, Юджин Колльер, Марджин Холден, Тони Колон, Сэм Хайона
Описание фильма:
Бывший торговец наркотиками, прошедший через все круги ада, решает выйти на пенсию и забыть о своём тёмном прошлом. Переехав из Лос-Анджелеса в Хьюстон, он резко меняет свой имидж и в глазах окружающих становится обыкновенным гражданином, которого трудно заподозрить в чём-либо криминальном. Однако судьба готовит очередной, самый неожиданный сюрприз бывшему наркодилеру. В город приезжает его подельник с грузом героина. Компаньон и не думал забывать о своём партнёре всё то время, пока тот строил свою новую жизнь. Он предлагает ему последнюю сделку. За всё однажды приходится платить, и бывший наркоделец оказывается на волосок от смерти.
Страна: США
Студия: PolyGram Filmed Entertainment, Propaganda Films
Продолжительность: 01:27:48
Перевод: Профессиональный (многоголосый закадровый), Авторский (одноголосый закадровый)
Тип субтитров: Вшитые, отключаемые
Язык субтитров: Русский (Full), Английский (Full)

Дата мировой премьеры:10 сентября 1998
Дата российской премьеры:11 декабря 2008, «Настроение Video»
Файл
Формат: MKV
Кодек: MPEG-4 AVC/H.264
Качество: BDRip 720p
Видео: ~ 8357 Кбит/сек, 1280 x 696, 59.940 кадров/сек
Аудио#1: AC3 5.1, 48.0 KHz, 448 Кбит/сек - Профессиональный многоголосый, DVD Group
Аудио#2: AC3 5.1, 48.0 KHz, 384 Кбит/сек - Профессиональный двухголосый, НТВ+
Аудио#3: AC3 5.1, 48.0 KHz, 448 Кбит/сек - Авторский одноголосый, Д. Пучков новый
Аудио#4: AC3 5.1, 48.0 KHz, 448 Кбит/сек - Авторский одноголосый, Д. Пучков старый
Аудио#5: AC3 5.1, 48.0 KHz, 448 Кбит/сек - Авторский одноголосый, Ю. Живов
Аудио#6: AC3 2.0, 48.0 KHz, 192 Кбит/сек - Авторский одноголосый, С. Визгунов

MediaInfo

Общее
Уникальный идентификатор : 181284280014072029890056610707044555580 (0x88621513BF72B1B4B24A4EE97DA7DB3C)
Полное имя : E:\Торренты\Thursday 60fps.mkv
Формат : Matroska
Версия формата : Version 4 / Version 2
Размер файла : 6,71 Гбайт
Продолжительность : 1 ч. 27 м.
Общий поток : 10,9 Мбит/сек
Дата кодирования : UTC 2016-12-24 19:53:25
Программа кодирования : mkvmerge v6.9.1 ('Blue Panther') 64bit built on Apr 18 2014 18:23:38
Библиотека кодирования : libebml v1.3.0 + libmatroska v1.4.1
Видео
Идентификатор : 1
Формат : AVC
Формат/Информация : Advanced Video Codec
Профиль формата : High@L4.1
Параметр CABAC формата : Да
Параметр ReFrames формата : 6 кадров
Идентификатор кодека : V_MPEG4/ISO/AVC
Продолжительность : 1 ч. 27 м.
Битрейт : 8357 Кбит/сек
Ширина : 1280 пикселей
Высота : 696 пикселей
Соотношение сторон : 1,85:1
Режим частоты кадров : Постоянный
Частота кадров : 57,542 кадров/сек
Цветовое пространство : YUV
Субдискретизация насыщенности : 4:2:0
Битовая глубина : 8 бит
Тип развёртки : Прогрессивная
Бит/(Пиксели*Кадры) : 0.163
Размер потока : 5,13 Гбайт (76%)
Заголовок : Release by mimok
Библиотека кодирования : x264 core 130 r2273 b3065e6
Настройки программы : cabac=1 / ref=6 / deblock=1:1:1 / analyse=0x3:0x133 / me=umh / subme=8 / psy=1 / psy_rd=1.00:0.15 / mixed_ref=1 / me_range=20 / chroma_me=1 / trellis=2 / 8x8dct=1 / cqm=0 / deadzone=21,11 / fast_pskip=0 / chroma_qp_offset=-3 / threads=6 / lookahead_threads=2 / sliced_threads=0 / nr=0 / decimate=0 / interlaced=0 / bluray_compat=0 / constrained_intra=0 / bframes=8 / b_pyramid=2 / b_adapt=2 / b_bias=0 / direct=1 / weightb=1 / open_gop=0 / weightp=2 / keyint=250 / keyint_min=25 / scenecut=40 / intra_refresh=0 / rc=crf / mbtree=0 / crf=17.0 / qcomp=0.63 / qpmin=10 / qpmax=51 / qpstep=4 / ip_ratio=1.40 / pb_ratio=1.30 / aq=2:1.20
Default : Да
Forced : Нет
Аудио #1
Идентификатор : 2
Формат : AC-3
Формат/Информация : Audio Coding 3
Расширение режима : CM (complete main)
Параметр Endianness формата : Big
Идентификатор кодека : A_AC3
Продолжительность : 1 ч. 27 м.
Вид битрейта : Постоянный
Битрейт : 448 Кбит/сек
Каналы : 6 каналов
Расположение каналов : Front: L C R, Side: L R, LFE
Частота : 48,0 КГц
Частота кадров : 31,250 кадров/сек (1536 spf)
Метод сжатия : С потерями
Размер потока : 281 Мбайт (4%)
Заголовок : MVO DVD Group
Язык : Russian
Default : Да
Forced : Нет
Аудио #2
Идентификатор : 3
Формат : AC-3
Формат/Информация : Audio Coding 3
Расширение режима : CM (complete main)
Параметр Endianness формата : Big
Идентификатор кодека : A_AC3
Продолжительность : 1 ч. 27 м.
Вид битрейта : Постоянный
Битрейт : 384 Кбит/сек
Каналы : 6 каналов
Расположение каналов : Front: L C R, Side: L R, LFE
Частота : 48,0 КГц
Частота кадров : 31,250 кадров/сек (1536 spf)
Метод сжатия : С потерями
Размер потока : 241 Мбайт (4%)
Заголовок : DVO НТВ+
Язык : Russian
Default : Нет
Forced : Нет
Аудио #3
Идентификатор : 4
Формат : AC-3
Формат/Информация : Audio Coding 3
Расширение режима : CM (complete main)
Параметр Endianness формата : Big
Идентификатор кодека : A_AC3
Продолжительность : 1 ч. 27 м.
Вид битрейта : Постоянный
Битрейт : 448 Кбит/сек
Каналы : 6 каналов
Расположение каналов : Front: L C R, Side: L R, LFE
Частота : 48,0 КГц
Частота кадров : 31,250 кадров/сек (1536 spf)
Метод сжатия : С потерями
Размер потока : 281 Мбайт (4%)
Заголовок : VO Д. Пучков новый
Язык : Russian
Default : Нет
Forced : Нет
Аудио #4
Идентификатор : 5
Формат : AC-3
Формат/Информация : Audio Coding 3
Расширение режима : CM (complete main)
Параметр Endianness формата : Big
Идентификатор кодека : A_AC3
Продолжительность : 1 ч. 27 м.
Вид битрейта : Постоянный
Битрейт : 448 Кбит/сек
Каналы : 6 каналов
Расположение каналов : Front: L C R, Side: L R, LFE
Частота : 48,0 КГц
Частота кадров : 31,250 кадров/сек (1536 spf)
Метод сжатия : С потерями
Размер потока : 281 Мбайт (4%)
Заголовок : VO Д. Пучков старый
Язык : Russian
Default : Нет
Forced : Нет
Аудио #5
Идентификатор : 6
Формат : AC-3
Формат/Информация : Audio Coding 3
Расширение режима : CM (complete main)
Параметр Endianness формата : Big
Идентификатор кодека : A_AC3
Продолжительность : 1 ч. 27 м.
Вид битрейта : Постоянный
Битрейт : 192 Кбит/сек
Каналы : 2 канала
Расположение каналов : Front: L R
Частота : 48,0 КГц
Частота кадров : 31,250 кадров/сек (1536 spf)
Метод сжатия : С потерями
Размер потока : 121 Мбайт (2%)
Заголовок : VO С. Визгунов
Язык : Russian
Default : Нет
Forced : Нет
Аудио #6
Идентификатор : 7
Формат : AC-3
Формат/Информация : Audio Coding 3
Расширение режима : CM (complete main)
Параметр Endianness формата : Big
Идентификатор кодека : A_AC3
Продолжительность : 1 ч. 27 м.
Вид битрейта : Постоянный
Битрейт : 448 Кбит/сек
Каналы : 6 каналов
Расположение каналов : Front: L C R, Side: L R, LFE
Частота : 48,0 КГц
Частота кадров : 31,250 кадров/сек (1536 spf)
Метод сжатия : С потерями
Размер потока : 281 Мбайт (4%)
Заголовок : VO Ю. Живов
Язык : Russian
Default : Нет
Forced : Нет
Текст #1
Идентификатор : 8
Формат : UTF-8
Идентификатор кодека : S_TEXT/UTF8
Идентификатор кодека/Информация : UTF-8 Plain Text
Заголовок : Full
Язык : Russian
Default : Да
Forced : Нет
Текст #2
Идентификатор : 9
Формат : UTF-8
Идентификатор кодека : S_TEXT/UTF8
Идентификатор кодека/Информация : UTF-8 Plain Text
Заголовок : Full
Язык : English
Default : Нет
Forced : Нет
Скриншоты:

Релиз подготовлен 60 - fps

[60-fps.org].t2466.torrent
Торрент: Зарегистрирован [ 2016-12-26 14:42 ] · 673B4F997B5128A3F52E78745E65D1039FBE4DDB

Скачать .torrent

Скачать

34 KB

Статус: проверено
Скачан: 42 раз
Поблагодарили:
Размер: 6,71 GB
 
Похожие Темы

[Цитировать]
ENIGMA

Спасибо Овации Овации Овации
 
Показать сообщения:    

Текущее время: 27-Мар 19:26

Часовой пояс: UTC + 3


Вы не можете начинать темы
Вы не можете отвечать на сообщения
Вы не можете редактировать свои сообщения
Вы не можете удалять свои сообщения
Вы не можете голосовать в опросах
Вы не можете прикреплять файлы к сообщениям
Вы можете скачивать файлы