Earth timelapses BDRip 1080p | 60 fps Лунный свет 3: Дни вечности / Lichtmond 3: Days of Eternity (2014) BDRip 720p | 60fps Планета Земля 2 / Planet Earth II (2016) BDRip 1080p | 60 fps Пейзажи времени / TimeScapes (2012) BDRip 1080p | 60 fps Погоня за ледниками / Chasing Ice (2012) BDRip 720p | 60fps Лунный свет 2: Вселенная света / Lichtmond 2: Universe of Light (2012) BDRip 720p | 60fps Лунный свет / Lichtmond (2010) BDRip 720p | 60fps Музыкальный камин / HDScape: Fireplace - Visions Of Tranquility (2008) BDRip 1080p | 60 fps
  1. Longevity:
    4 years 3 months
    Posts:
    221
    Gender:
    Male
    Заказать фильмы, клипы или любое другое видео в качестве 60fps может каждый!!!
    Стоимость одного видео 50руб. !!!
    Пишите Талямба в личку, всё обсудите...
    Крошечный мир / Tiny World [S01] (2020) WEB-DL 1080p | 60 fps Информация
    Название: Крошечный мир
    Оригинальное название: Tiny World
    Год выхода: 2020
    Жанр: Документальный
    Режиссер: Эд Уоткинс, Lucy Wells
    Страна: США
    Продолжительность: 6 серий х 00:30:00
    -- Сюжет:
    Tiny World - это невероятной красоты документальное шоу О крошечных существах различных экосистем, а также об их необычных навыках, помогающих им приспосабливаться к переменчивому и жестокому миру. -- Список серий:
    1. Саванна/Savannah
    2. Джунгли/Jungle
    3. Острова/Island
    4. Глушь Австралии/Outback
    5. Лес/Woodland
    6. Сад/Garden-- Файл
    Кодек: V_MPEG4/ISO/AVC
    Формат: MKV
    Качество: WEB-DL 1080p | 60 fps
    Видео: 1920 x 1080 (16:9) | 59,940 fps | 30 Мбит/сек
    Аудио 1: AC3, 2 ch, 192 Kbps | Профессиональный [ViruseProject] |

    Аудио 1: EAC3, 6 ch, 768 Kbps | English |

    MedifInfo

    Видео
    Идентификатор : 1
    Формат : AVC
    Формат/Информация : Advanced Video Codec
    Профиль формата : [email protected]
    Параметр CABAC формата : Да
    Параметр ReFrames формата : 4 кадра
    Режим смешивания : Header stripping
    Идентификатор кодека : V_MPEG4/ISO/AVC
    Продолжительность : 30 м. 5 с.
    Битрейт : 30,0 Мбит/сек
    Ширина : 1920 пикселей
    Высота : 1080 пикселей
    Соотношение сторон : 16:9
    Режим частоты кадров : Постоянный
    Частота кадров : 59,940 (60000/1001) кадров/сек
    Цветовое пространство : YUV
    Субдискретизация насыщенности : 4:2:0
    Битовая глубина : 8 бит
    Тип развёртки : Прогрессивная
    Бит/(Пиксели*Кадры) : 0.241
    Размер потока : 6,17 Гбайт (95%)
    Библиотека кодирования : x264 core 146 r2538 121396c
    Настройки программы : cabac=1 / ref=4 / deblock=1:0:0 / analyse=0x3:0x113 / me=umh / subme=8 / psy=1 / psy_rd=1.00:0.25 / mixed_ref=1 / me_range=16 / chroma_me=1 / trellis=1 / 8x8dct=1 / cqm=0 / deadzone=6,6 / fast_pskip=1 / chroma_qp_offset=-4 / threads=12 / lookahead_threads=3 / sliced_threads=0 / nr=0 / decimate=0 / interlaced=0 / bluray_compat=0 / constrained_intra=0 / bframes=3 / b_pyramid=2 / b_adapt=2 / b_bias=0 / direct=3 / weightb=1 / open_gop=0 / weightp=2 / keyint=600 / keyint_min=60 / scenecut=40 / intra_refresh=0 / rc_lookahead=50 / rc=2pass / mbtree=1 / bitrate=30000 / ratetol=1.0 / qcomp=0.80 / qpmin=0 / qpmax=69 / qpstep=4 / cplxblur=20.0 / qblur=0.5 / vbv_maxrate=50000 / vbv_bufsize=50000 / nal_hrd=none / filler=0 / ip_ratio=1.10 / aq=1:0.50
    Язык : English
    Default : Да
    Forced : Нет
    Аудио #1
    Идентификатор : 2
    Формат : AC-3
    Формат/Информация : Audio Coding 3
    Расширение режима : CM (complete main)
    Параметр Endianness формата : Big
    Режим смешивания : Header stripping
    Идентификатор кодека : A_AC3
    Продолжительность : 30 м. 5 с.
    Вид битрейта : Постоянный
    Битрейт : 192 Кбит/сек
    Каналы : 2 канала
    Расположение каналов : Front: L R
    Частота : 48,0 КГц
    Частота кадров : 31,250 кадров/сек (1536 spf)
    Битовая глубина : 16 бит
    Метод сжатия : С потерями
    Размер потока : 41,3 Мбайт (1%)
    Заголовок : ViruseProject
    Язык : Russian
    Default : Да
    Forced : Нет
    Аудио #2
    Идентификатор : 3
    Формат : E-AC-3
    Формат/Информация : Enhanced Audio Coding 3
    Параметр Endianness формата : Big
    Режим смешивания : Header stripping
    Идентификатор кодека : A_EAC3
    Продолжительность : 30 м. 5 с.
    Вид битрейта : Постоянный
    Битрейт : 768 Кбит/сек
    Каналы : 6 каналов
    Расположение каналов : Front: L C R, Side: L R, LFE
    Частота : 48,0 КГц
    Частота кадров : 187,500 кадров/сек (256 spf)
    Метод сжатия : С потерями
    Размер потока : 165 Мбайт (2%)
    Язык : English
    Default : Нет
    Forced : Нет

    Release was prepared by 60-fps.org



You cannot post new topics in this forum
You cannot reply to topics in this forum
You cannot edit your posts in this forum
You cannot delete your posts in this forum
You cannot vote in polls in this forum
You cannot attach files in this forum
You cannot download files in this forum