Тачки 3 / Cars 3 (2017) BDRip 1080p | 60 fps Тачки 3 / Cars 3 (2017) BDRip 720p | 60 fps Гадкий я 3 / Despicable Me 3 (2017) BDRip 720p | 60 fps Кингсглейв: Последняя фантазия XV / Kingsglaive: Final Fantasy XV (2016) BDRip 1080p | 60 fps Моана / Moana (2016) BDRip 720p | 60 fps Зверополис / Zootopia (2016) BDRip 1080p | 60 fps Фердинанд / Ferdinand (2017) BDRip 720p | 60 fps Гадкий я 3 / Despicable Me 3 (2017) BDRip 1080p | 60 fps
  1. Стаж:
    3 года 8 месяцев
    Сообщений:
    2334
    Пол:
    Мужской
    «Лучшее лекарство от весеннего авитаминоза» Информация
    Название: Кролик Питер
    Оригинальное название: Peter Rabbit
    Год выхода: 2018
    Жанр: Мультфильм, фэнтези, комедия, приключения
    Режиссер: Уилл Глак
    Сценарий: Роб Либер, Уилл Глак
    Продюсер: Джейсон Бэт, Даг Белград
    В ролях: Джеймс Корден, Файсаль Баззи, Донал Глисон, Сиа, Колин Муди, Сэм Нилл, Марго Робби, Элизабет Дебики, Дэйзи Ридли, Роуз Бирн

    Сюжет:
    Фильм о приключениях маленького и непоседливого крольчонка по имени Питер, который хочет пробраться в огород к грозному фермеру и вдоволь полакомиться там фруктами и овощами.

    Страна: Австралия, США
    Продолжительность: 01:34:42

    Файл
    Кодек: H.264
    Формат: MKV
    Качество: BDRip 1080p | 60 fps
    Видео: 1920 x 800 (2.400) | 59.940 fps | 23.0 Мбит/сек
    Аудио 01: AC3 | 5.1 | 48 kHz | 384 kbps | 16 bit | Дубляж - iTunes |
    Аудио 02: AC3 | 5.1 | 48 kHz | 448 kbps | 16 bit | english |
    Субтитры: Русские (full), английские

    MedifInfo

    Видео
    Идентификатор : 1
    Формат : AVC
    Формат/Информация : Advanced Video Codec
    Профиль формата : High@L4.1
    Параметр CABAC формата : Да
    Параметр ReFrames формата : 4 кадра
    Идентификатор кодека : V_MPEG4/ISO/AVC
    Продолжительность : 1 ч. 34 м.
    Битрейт : 23,0 Мбит/сек
    Ширина : 1920 пикселей
    Высота : 800 пикселей
    Соотношение сторон : 2,40:1
    Режим частоты кадров : Постоянный
    Частота кадров : 59,880 кадров/сек
    Частота кадров в оригинале : 59,940 кадров/сек
    Цветовое пространство : YUV
    Субдискретизация насыщенности : 4:2:0
    Битовая глубина : 8 бит
    Тип развёртки : Прогрессивная
    Бит/(Пиксели*Кадры) : 0.250
    Размер потока : 14,9 Гбайт (95%)
    Заголовок : www.60-fps.org
    Библиотека кодирования : x264 core 155 r2901 7d0ff22
    Настройки программы : cabac=1 / ref=3 / deblock=1:-3:-3 / analyse=0x3:0x113 / me=umh / subme=9 / psy=1 / psy_rd=1.00:0.25 / mixed_ref=1 / me_range=32 / chroma_me=1 / trellis=1 / 8x8dct=1 / cqm=0 / deadzone=6,6 / fast_pskip=1 / chroma_qp_offset=-4 / threads=12 / lookahead_threads=1 / sliced_threads=0 / nr=0 / decimate=0 / interlaced=0 / bluray_compat=0 / constrained_intra=0 / bframes=3 / b_pyramid=2 / b_adapt=1 / b_bias=0 / direct=1 / weightb=1 / open_gop=0 / weightp=2 / keyint=599 / keyint_min=59 / scenecut=40 / intra_refresh=0 / rc_lookahead=40 / rc=2pass / mbtree=1 / bitrate=22999 / ratetol=1.0 / qcomp=0.80 / qpmin=0 / qpmax=69 / qpstep=4 / cplxblur=20.0 / qblur=0.5 / vbv_maxrate=62500 / vbv_bufsize=78125 / nal_hrd=none / filler=0 / ip_ratio=1.10 / aq=1:0.50
    Default : Да
    Forced : Нет
    Аудио #1
    Идентификатор : 2
    Формат : AC-3
    Формат/Информация : Audio Coding 3
    Расширение режима : CM (complete main)
    Параметр Endianness формата : Big
    Идентификатор кодека : A_AC3
    Продолжительность : 1 ч. 34 м.
    Вид битрейта : Постоянный
    Битрейт : 384 Кбит/сек
    Каналы : 6 каналов
    Расположение каналов : Front: L C R, Side: L R, LFE
    Частота : 48,0 КГц
    Битовая глубина : 16 бит
    Метод сжатия : С потерями
    Размер потока : 260 Мбайт (2%)
    Заголовок : Дубляж - iTunes
    Язык : Russian
    Default : Да
    Forced : Нет
    Аудио #2
    Идентификатор : 3
    Формат : AC-3
    Формат/Информация : Audio Coding 3
    Расширение режима : CM (complete main)
    Параметр Endianness формата : Big
    Идентификатор кодека : A_AC3
    Продолжительность : 1 ч. 34 м.
    Вид битрейта : Постоянный
    Битрейт : 448 Кбит/сек
    Каналы : 6 каналов
    Расположение каналов : Front: L C R, Side: L R, LFE
    Частота : 48,0 КГц
    Битовая глубина : 16 бит
    Метод сжатия : С потерями
    Размер потока : 303 Мбайт (2%)
    Заголовок : english
    Язык : English
    Default : Нет
    Forced : Нет
    Текст #1
    Идентификатор : 4
    Формат : UTF-8
    Идентификатор кодека : S_TEXT/UTF8
    Идентификатор кодека/Информация : UTF-8 Plain Text
    Заголовок : Full
    Язык : Russian
    Default : Нет
    Forced : Нет
    Текст #2
    Идентификатор : 5
    Формат : UTF-8
    Идентификатор кодека : S_TEXT/UTF8
    Идентификатор кодека/Информация : UTF-8 Plain Text
    Заголовок : Full
    Язык : English
    Default : Нет
    Forced : Нет
    Меню
    00:00:00.000 : en:00:00:00.000
    00:04:04.786 : en:00:04:04.786
    00:08:26.297 : en:00:08:26.297
    00:15:11.702 : en:00:15:11.702
    00:21:00.634 : en:00:21:00.634
    00:25:43.584 : en:00:25:43.584
    00:30:50.265 : en:00:30:50.265
    00:38:00.862 : en:00:38:00.862
    00:44:37.341 : en:00:44:37.341
    00:50:07.671 : en:00:50:07.671
    00:56:21.295 : en:00:56:21.295
    01:01:07.581 : en:01:01:07.581
    01:07:02.560 : en:01:07:02.560
    01:10:30.810 : en:01:10:30.810
    01:14:35.137 : en:01:14:35.137
    01:21:51.990 : en:01:21:51.990

    Релиз подготовлен 60 - fps

  2. Стаж:
    3 месяца 5 дней
    Сообщений:
    2
    Пол:
    Не указан
    камрады. встаньте на раздачу плиз. 2 дня качаю. 1,2 % осталось)
    29-Апр-2018 09:34 (спустя 2 дня 1 час)
  3. Стаж:
    3 года 8 месяцев
    Сообщений:
    2334
    Пол:
    Мужской
    9666камрады. встаньте на раздачу плиз. 2 дня качаю. 1,2 % осталось)
    Стою ....
    29-Апр-2018 09:44 (спустя 9 минут)
  4. Стаж:
    3 месяца 5 дней
    Сообщений:
    2
    Пол:
    Не указан
    9667
    9666камрады. встаньте на раздачу плиз. 2 дня качаю. 1,2 % осталось)
    Стою ....
    скачал. данке шоооон)
    29-Апр-2018 09:46 (спустя 2 минуты)
  5. Стаж:
    1 год 9 месяцев
    Сообщений:
    476
    Пол:
    Мужской
    Кин нармальный,думал будет фигня,а нет,посмотрел с удовольствием... !
    Sony - умеют снимать качественную картинку... ! Да Да Да
    30-Апр-2018 12:21 (спустя 1 день 2 часа)


Вы не можете начинать темы
Вы не можете отвечать на сообщения
Вы не можете редактировать свои сообщения
Вы не можете удалять свои сообщения
Вы не можете голосовать в опросах
Вы не можете прикреплять файлы к сообщениям
Вы не можете скачивать файлы