[Цитировать]
Kryl

«Welcome to the Spanish Inquisition»- Информация
Название: Кредо убийцы
Оригинальное название: Assassin's Creed
Год выхода: 2016
Жанр: Фантастика, фэнтези, боевик, приключения
Режиссер: Джастин Курзель
Сценарий: Майкл Лессли, Адам Купер, Билл Колладж
Продюсер: Маркус Барметтлер, Жан-Жюльен Баронне, Кристин Бёрджесс-Кемар
В ролях: Майкл Фассбендер, Марион Котийяр, Джереми Айронс, Брендан Глисон, Шарлотта Рэмплинг, Майкл Кеннет Уильямс, Дени Меноше, Ариана Лабед, Халид Абдалла, Эсси Дэвис
--Сюжет:
Благодаря революционным технологиям, позволяющим вызвать в памяти воспоминания прежних поколений, Каллум Линч проживает приключения своего предка Агилара в Испании 15-го века. Каллум узнает, что является потомком членов загадочного тайного общества ассасинов. Накопив невероятные знания и навыки, он вступает в противостояние с могущественной и жестокой организацией тамплиеров в наши дни.- Страна: Великобритания, Франция, Гонконг, США, Тайвань, Мальта, Канада
Продолжительность: 01:55:31

Файл
Кодек: MPEG4/ISO/AVC H.264
Формат: MKV
Качество: BDRip 1080p | 60 fps
Видео: 1920 x 800 (2.400) | 59.940 fps | 20.0 Мбит/сек
Аудио 1: DTS | 5.1 | 48 kHz | 768 kbps | 24 bit | Дубляж |
Аудио 2: AC3 | 5.1 | 48 kHz | 448 kbps | 16 bit | Дубляж |
Аудио 3: DTS-HD MA | 7.1 | 48 kHz | 5355 kbps | 24 bit | ENG |
Субтитры: Русские (forced, full), украинские (forced, full), английские

MedifInfo

Видео
Идентификатор : 1
Формат : AVC
Формат/Информация : Advanced Video Codec
Профиль формата : High@L4.1
Параметр CABAC формата : Да
Параметр ReFrames формата : 5 кадров
Идентификатор кодека : V_MPEG4/ISO/AVC
Продолжительность : 1 ч. 55 м.
Номинальный битрейт : 20,0 Мбит/сек
Ширина : 1920 пикселей
Высота : 800 пикселей
Соотношение сторон : 2,40:1
Режим частоты кадров : Постоянный
Частота кадров : 59,880 кадров/сек
Частота кадров в оригинале : 59,940 кадров/сек
Цветовое пространство : YUV
Субдискретизация насыщенности : 4:2:0
Битовая глубина : 8 бит
Тип развёртки : Прогрессивная
Бит/(Пиксели*Кадры) : 0.217
Заголовок : www.60-fps.org
Библиотека кодирования : x264 core 148 r2638 7599210
Настройки программы : cabac=1 / ref=5 / deblock=1:-3:-3 / analyse=0x3:0x113 / me=umh / subme=8 / psy=1 / psy_rd=1.00:0.25 / mixed_ref=1 / me_range=32 / chroma_me=1 / trellis=1 / 8x8dct=1 / cqm=0 / deadzone=6,6 / fast_pskip=1 / chroma_qp_offset=-4 / threads=12 / lookahead_threads=2 / sliced_threads=0 / nr=0 / decimate=0 / interlaced=0 / bluray_compat=0 / constrained_intra=0 / bframes=3 / b_pyramid=2 / b_adapt=2 / b_bias=0 / direct=3 / weightb=1 / open_gop=0 / weightp=2 / keyint=599 / keyint_min=59 / scenecut=40 / intra_refresh=0 / rc_lookahead=50 / rc=2pass / mbtree=1 / bitrate=19999 / ratetol=1.0 / qcomp=0.80 / qpmin=0 / qpmax=69 / qpstep=4 / cplxblur=20.0 / qblur=0.5 / vbv_maxrate=62500 / vbv_bufsize=78125 / nal_hrd=none / filler=0 / ip_ratio=1.10 / aq=1:0.50
Default : Да
Forced : Нет
Аудио #1
Идентификатор : 2
Формат : DTS
Формат/Информация : Digital Theater Systems
Режим : 16
Параметр Endianness формата : Big
Идентификатор кодека : A_DTS
Продолжительность : 1 ч. 55 м.
Вид битрейта : Постоянный
Битрейт : 768 Кбит/сек
Каналы : 6 каналов
Расположение каналов : Front: L C R, Side: L R, LFE
Частота : 48,0 КГц
Битовая глубина : 24 бит
Метод сжатия : С потерями
Размер потока : 635 Мбайт (3%)
Заголовок : Dub [License]
Язык : Russian
Default : Да
Forced : Нет
Аудио #2
Идентификатор : 3
Формат : AC-3
Формат/Информация : Audio Coding 3
Расширение режима : CM (complete main)
Параметр Endianness формата : Big
Идентификатор кодека : A_AC3
Продолжительность : 1 ч. 55 м.
Вид битрейта : Постоянный
Битрейт : 448 Кбит/сек
Каналы : 6 каналов
Расположение каналов : Front: L C R, Side: L R, LFE
Частота : 48,0 КГц
Битовая глубина : 16 бит
Метод сжатия : С потерями
Размер потока : 370 Мбайт (2%)
Заголовок : Dub [License]
Язык : Ukrainian
Default : Нет
Forced : Нет
Аудио #3
Идентификатор : 4
Формат : DTS
Формат/Информация : Digital Theater Systems
Профиль формата : MA / Core
Режим : 16
Параметр Endianness формата : Big
Идентификатор кодека : A_DTS
Продолжительность : 1 ч. 55 м.
Вид битрейта : Переменный
Битрейт : Неизвестно / 1509 Кбит/сек
Каналы : 8 каналов / 6 каналов
Расположение каналов : Front: L C R, Side: L R, Back: L R, LFE / Front: L C R, Side: L R, LFE
Частота : 48,0 КГц
Битовая глубина : 24 бит
Метод сжатия : Без потерь / Lossy
Заголовок : Original
Язык : English
Default : Нет
Forced : Нет
Текст #1
Идентификатор : 5
Формат : UTF-8
Идентификатор кодека : S_TEXT/UTF8
Идентификатор кодека/Информация : UTF-8 Plain Text
Заголовок : Forced
Язык : Russian
Default : Да
Forced : Нет
Текст #2
Идентификатор : 6
Формат : UTF-8
Идентификатор кодека : S_TEXT/UTF8
Идентификатор кодека/Информация : UTF-8 Plain Text
Заголовок : Full
Язык : Russian
Default : Нет
Forced : Нет
Текст #3
Идентификатор : 7
Формат : UTF-8
Идентификатор кодека : S_TEXT/UTF8
Идентификатор кодека/Информация : UTF-8 Plain Text
Заголовок : Forced
Язык : Ukrainian
Default : Нет
Forced : Нет
Текст #4
Идентификатор : 8
Формат : UTF-8
Идентификатор кодека : S_TEXT/UTF8
Идентификатор кодека/Информация : UTF-8 Plain Text
Заголовок : Full
Язык : Ukrainian
Default : Нет
Forced : Нет
Текст #5
Идентификатор : 9
Формат : UTF-8
Идентификатор кодека : S_TEXT/UTF8
Идентификатор кодека/Информация : UTF-8 Plain Text
Заголовок : Forced
Язык : English
Default : Нет
Forced : Нет
Текст #6
Идентификатор : 10
Формат : UTF-8
Идентификатор кодека : S_TEXT/UTF8
Идентификатор кодека/Информация : UTF-8 Plain Text
Заголовок : Full
Язык : English
Default : Нет
Forced : Нет
Текст #7
Идентификатор : 11
Формат : UTF-8
Идентификатор кодека : S_TEXT/UTF8
Идентификатор кодека/Информация : UTF-8 Plain Text
Заголовок : SDH
Язык : English
Default : Нет
Forced : Нет
Текст #8
Идентификатор : 12
Формат : UTF-8
Идентификатор кодека : S_TEXT/UTF8
Идентификатор кодека/Информация : UTF-8 Plain Text
Заголовок : SDH [COLORED]
Язык : English
Default : Нет
Forced : Нет
Меню
00:00:00.000 : en:
00:06:04.155 : en:
00:09:32.697 : en:
00:12:47.517 : en:
00:16:47.715 : en:
00:21:07.433 : en:
00:26:56.448 : en:
00:31:55.080 : en:
00:38:06.284 : en:
00:41:43.167 : en:
00:46:33.040 : en:
00:50:10.257 : en:
00:53:04.390 : en:
00:56:17.624 : en:
00:59:26.480 : en:
01:02:32.582 : en:
01:06:37.035 : en:
01:13:08.759 : en:
01:18:45.888 : en:
01:23:01.101 : en:
01:30:17.996 : en:
01:34:18.194 : en:
01:37:45.193 : en:
01:40:51.003 : en:

Релиз подготовлен 60 - fps



Последний раз редактировалось: Kryl (2017-04-19 08:18), всего редактировалось 1 раз

[Цитировать]
Darkus-dm

Без тормозов идет?

[Цитировать]
Талямба

Darkus-dm, ТОРМОЗА ДЕЛАЕТ ВАШЕ ЖЕЛЕЗО,А НЕ ФИЛЬМ... Смеюсь

[Цитировать]
Талямба

Для этого вам и пишут параметры релиза,что бы вы могли понять,потянет ли ваш плеер видеопоток в 20Мбит/с.

[Цитировать]
Dmitry37

Фильм классный, но при мощном ПК бывает, что тормозит.

[Цитировать]
Надія Лящук

супер Улыбаюсь
 
Показать сообщения:    

Текущее время: 18-Окт 13:58

Часовой пояс: UTC + 3


Вы не можете начинать темы
Вы не можете отвечать на сообщения
Вы не можете редактировать свои сообщения
Вы не можете удалять свои сообщения
Вы не можете голосовать в опросах
Вы не можете прикреплять файлы к сообщениям
Вы не можете скачивать файлы