Богемская рапсодия /Bohemian Rhapsody (2018) BDRip 1080p | 60 fps Джон Уик / John Wick (2014) BDRip 720p | 60 fps Властелин колец: Трилогия / The Lord of the Rings: Trilogy (2001-2003) BDRip-AVC | Extended Cut | 60 fps Щелкунчик и четыре королевства / The Nutcracker and the Four Realms (2018) BDRip 1080p | 60 fps Репродукция / Replicas (2018) BDRip 720p | 60 fps Клаустрофобы / Escape Room (2019) BDRip 1080p | 60 fps Зеленая книга / Green Book (2018) BDRip 720p | 60 fps Апгрейд / Upgrade (2018) BDRip 1080p | 60 fps
  1. Longevity:
    4 years 10 months
    Posts:
    2411
    Gender:
    Male
    «Change everything Without changing anything» Информация
    Название: Красотка на всю голову
    Оригинальное название: I Feel Pretty
    Год выхода: 2018
    Жанр: Комедия
    Режиссер: Эбби Кон, Марк Силверштейн
    Сценарий: Эбби Кон, Марк Силверштейн
    Продюсер: Фелис Би, Джастин Бёрш
    В ролях: Эми Шумер, Мишель Уильямс, Том Хоппер, Рори Сковел, Адриан Мартинес, Эмили Ратажковски, Эйди Брайант, Бизи Филиппс, Лорен Хаттон, Сашир Замата

    Сюжет:
    Ее жизнь состояла из вечных попыток сесть на диету или заняться фитнесом. «Попытка засчитана», - подумала Вселенная и скинула бедняжку с велотренажера. Девушка ударяется головой и обретает аномальную уверенность в том, что теперь она просто неотразима. Одна проблема - в глазах других людей она ни капли не изменилась. В общем, красотка на всю голову.

    Страна: Китай, США
    Продолжительность: 01:50:59

    Файл
    Кодек: H.264
    Формат: MKV
    Качество: BDRip 720p | 60 fps
    Видео: 1280 x 534 (2.397) | 59.940 fps | 10.0 Мбит/сек
    Аудио 01: AC3 | 2.0 | 48 kHz | 384 kbps | 16 bit | HDRezka Studio |
    Аудио 02: AC3 | 5.1 | 48 kHz | 448 kbps | 16 bit | english |
    Субтитры: english

    MedifInfo

    Видео
    Идентификатор : 1
    Формат : AVC
    Формат/Информация : Advanced Video Codec
    Профиль формата : Main@L4.1
    Настройки формата : CABAC / 5 Ref Frames
    Параметр CABAC формата : Да
    Параметр RefFrames формата : 5 кадров
    Режим смешивания : Header stripping
    Идентификатор кодека : V_MPEG4/ISO/AVC
    Продолжительность : 1 ч. 50 м.
    Битрейт : 9999 Кбит/сек
    Ширина : 1280 пикселей
    Высота : 534 пикселя
    Соотношение сторон : 2,40:1
    Режим частоты кадров : Постоянный
    Частота кадров : 59,940 (60000/1001) кадров/сек
    Цветовое пространство : YUV
    Субдискретизация насыщенности : 4:2:0
    Битовая глубина : 8 бит
    Тип развёртки : Прогрессивная
    Бит/(Пиксели*Кадры) : 0.244
    Размер потока : 7,59 Гбайт (90%)
    Заголовок : www.60-fps.org
    Библиотека кодирования : x264 core 155 r2901 7d0ff22
    Настройки программы : cabac=1 / ref=5 / deblock=1:-3:-3 / analyse=0x1:0x111 / me=hex / subme=8 / psy=1 / psy_rd=1.00:0.25 / mixed_ref=1 / me_range=16 / chroma_me=1 / trellis=2 / 8x8dct=0 / cqm=0 / deadzone=6,6 / fast_pskip=1 / chroma_qp_offset=-4 / threads=12 / lookahead_threads=2 / sliced_threads=0 / nr=0 / decimate=0 / interlaced=0 / bluray_compat=0 / constrained_intra=0 / bframes=3 / b_pyramid=2 / b_adapt=1 / b_bias=0 / direct=3 / weightb=1 / open_gop=0 / weightp=2 / keyint=599 / keyint_min=59 / scenecut=40 / intra_refresh=0 / rc_lookahead=50 / rc=2pass / mbtree=1 / bitrate=9999 / ratetol=1.0 / qcomp=0.80 / qpmin=0 / qpmax=69 / qpstep=4 / cplxblur=20.0 / qblur=0.5 / vbv_maxrate=50000 / vbv_bufsize=62500 / nal_hrd=none / filler=0 / ip_ratio=1.10 / aq=1:0.50
    Default : Да
    Forced : Нет
    Аудио #1
    Идентификатор : 2
    Формат : AC-3
    Формат/Информация : Audio Coding 3
    Режим смешивания : Header stripping
    Идентификатор кодека : A_AC3
    Продолжительность : 1 ч. 50 м.
    Вид битрейта : Постоянный
    Битрейт : 384 Кбит/сек
    Каналы : 2 канала
    Расположение каналов : Front: L R
    Частота : 48,0 КГц
    Частота кадров : 31,250 кадров/сек (1536 SPF)
    Битовая глубина : 16 бит
    Метод сжатия : С потерями
    Размер потока : 305 Мбайт (4%)
    Заголовок : HDRezka Studio
    Язык : Russian
    ServiceKind/String : Complete Main
    Default : Да
    Forced : Нет
    Аудио #2
    Идентификатор : 3
    Формат : AC-3
    Формат/Информация : Audio Coding 3
    Режим смешивания : Header stripping
    Идентификатор кодека : A_AC3
    Продолжительность : 1 ч. 50 м.
    Вид битрейта : Постоянный
    Битрейт : 448 Кбит/сек
    Каналы : 6 каналов
    Расположение каналов : Front: L C R, Side: L R, LFE
    Частота : 48,0 КГц
    Частота кадров : 31,250 кадров/сек (1536 SPF)
    Битовая глубина : 16 бит
    Метод сжатия : С потерями
    Размер потока : 356 Мбайт (4%)
    Заголовок : english
    Язык : English
    ServiceKind/String : Complete Main
    Default : Нет
    Forced : Нет
    Текст #1
    Идентификатор : 4
    Формат : UTF-8
    Идентификатор кодека : S_TEXT/UTF8
    Идентификатор кодека/Информация : UTF-8 Plain Text
    Язык : English
    Default : Нет
    Forced : Нет
    Текст #2
    Идентификатор : 5
    Формат : UTF-8
    Идентификатор кодека : S_TEXT/UTF8
    Идентификатор кодека/Информация : UTF-8 Plain Text
    Заголовок : SDH
    Язык : English
    Default : Нет
    Forced : Нет
    Меню
    00:00:00.000 : en:Chapter 01
    00:07:30.658 : en:Chapter 02
    00:13:31.185 : en:Chapter 03
    00:20:21.845 : en:Chapter 04
    00:25:49.130 : en:Chapter 05
    00:30:03.384 : en:Chapter 06
    00:34:31.194 : en:Chapter 07
    00:38:47.491 : en:Chapter 08
    00:44:13.734 : en:Chapter 09
    00:47:59.251 : en:Chapter 10
    00:53:46.306 : en:Chapter 11
    00:58:07.525 : en:Chapter 12
    01:04:03.589 : en:Chapter 13
    01:11:54.310 : en:Chapter 14
    01:19:13.415 : en:Chapter 15
    01:27:14.062 : en:Chapter 16
    01:31:33.154 : en:Chapter 17
    01:37:00.564 : en:Chapter 18
    01:44:10.786 : en:Chapter 19
    01:46:17.579 : en:Chapter 20

    Release was prepared by 60 - fps

  2. Longevity:
    2 years 9 months
    Posts:
    99
    Gender:
    Male
    1080p будет?
    17-Jul-2018 18:16 (after 1 day 22 hours)
  3. Longevity:
    4 years 10 months
    Posts:
    2411
    Gender:
    Male
    99981080p будет?
    нет ..
    17-Jul-2018 20:25 (after 2 hours 8 minutes)


You cannot post new topics in this forum
You cannot reply to topics in this forum
You cannot edit your posts in this forum
You cannot delete your posts in this forum
You cannot vote in polls in this forum
You cannot attach files in this forum
You cannot download files in this forum