Апгрейд / Upgrade (2018) BDRip 1080p | 60 fps Властелин колец: Трилогия / The Lord of the Rings: Trilogy (2001-2003) BDRip-AVC | Extended Cut | 60 fps Богемская рапсодия /Bohemian Rhapsody (2018) BDRip 1080p | 60 fps Альфа / Alpha (2018) BDRip 720p | 60 fps Кристофер Робин / Christopher Robin (2018) BDRip 1080p | 60 fps 22 мили / Mile 22 (2018) BDRip 720p | 60 fps Водный мир / Waterworld (1995) BDRip 1080p | 60 fps Проклятие монахини / The Nun (2018) BDRip 720p | 60 fps
  1. Longevity:
    4 years 6 months
    Posts:
    2411
    Gender:
    Male
    «Seductive. Deceptive. Deadly» Информация
    Название: Красный воробей
    Оригинальное название: Red Sparrow
    Год выхода: 2018
    Жанр: Триллер, детектив
    Режиссер: Френсис Лоуренс
    Сценарий: Джастин Хэйс, Джейсон Мэттьюс
    Продюсер: Питер Чернин, Дэвид Рэди
    В ролях: Дженнифер Лоуренс, Джоэл Эдгертон, Маттиас Шонартс, Шарлотта Рэмплинг, Мэри-Луиз Паркер, Киаран Хайндс, Джоэли Ричардсон, Билл Кэмп, Джереми Айронс, Текла Рютен

    Сюжет:
    После вынужденного окончания карьеры из-за профессиональной травмы Доминика Егорова и ее мать сталкиваются с мрачным и неопределенным будущим. Героиня соглашается стать рекрутом в Школе Воробьев, секретной службе, которая обучает уникальных молодых людей использовать свое тело и ум в качестве опаснейшего оружия. После долгого садистского обучения девушка превращается в самого опасного Воробья за всю историю секретной службы. Теперь бывшая балерина должна примирить в себе человека, которым она была, и силу, которой она овладела, со своей собственной жизнью и жизнью всех, кто ей дорог. В том числе, американского агента ЦРУ, пытающегося убедить ее, что он единственный человек, которому она может доверять.

    Страна: США
    Продолжительность: 02:20:13

    Файл
    Кодек: H.264
    Формат: MKV
    Качество: BDRip 720p | 60 fps
    Видео: 1280 x 534 (2.397) | 59.940 fps | 10.0 Мбит/сек
    Аудио 01: AC3 | 5.1 | 48 kHz | 640 kbps | 16 bit | Дубляж - Лицензия |
    Аудио 02: AC3 | 2.0 | 48 kHz | 192 kbps | 16 bit | HDRezka Studio |
    Аудио 03: AC3 | 5.1 | 48 kHz | 448 kbps | 16 bit | Дубляж - Лицензия |
    Аудио 04: AC3 | 5.1 | 48 kHz | 640 kbps | 16 bit | english |
    Субтитры: Русские (2xFull), английские

    MedifInfo

    Видео
    Идентификатор : 1
    Формат : AVC
    Формат/Информация : Advanced Video Codec
    Профиль формата : High@L4.1
    Параметр CABAC формата : Да
    Параметр ReFrames формата : 4 кадра
    Идентификатор кодека : V_MPEG4/ISO/AVC
    Продолжительность : 2 ч. 20 м.
    Битрейт : 9999 Кбит/сек
    Ширина : 1280 пикселей
    Высота : 534 пикселя
    Соотношение сторон : 2,40:1
    Режим частоты кадров : Постоянный
    Частота кадров : 59,880 кадров/сек
    Частота кадров в оригинале : 59,940 кадров/сек
    Цветовое пространство : YUV
    Субдискретизация насыщенности : 4:2:0
    Битовая глубина : 8 бит
    Тип развёртки : Прогрессивная
    Бит/(Пиксели*Кадры) : 0.244
    Размер потока : 9,56 Гбайт (82%)
    Заголовок : www.60-fps.org
    Библиотека кодирования : x264 core 155 r2901 7d0ff22
    Настройки программы : cabac=1 / ref=3 / deblock=1:-3:-3 / analyse=0x3:0x113 / me=umh / subme=9 / psy=1 / psy_rd=1.00:0.25 / mixed_ref=1 / me_range=32 / chroma_me=1 / trellis=1 / 8x8dct=1 / cqm=0 / deadzone=6,6 / fast_pskip=1 / chroma_qp_offset=-4 / threads=12 / lookahead_threads=1 / sliced_threads=0 / nr=0 / decimate=0 / interlaced=0 / bluray_compat=0 / constrained_intra=0 / bframes=3 / b_pyramid=2 / b_adapt=1 / b_bias=0 / direct=1 / weightb=1 / open_gop=0 / weightp=2 / keyint=599 / keyint_min=59 / scenecut=40 / intra_refresh=0 / rc_lookahead=40 / rc=2pass / mbtree=1 / bitrate=9999 / ratetol=1.0 / qcomp=0.80 / qpmin=0 / qpmax=69 / qpstep=4 / cplxblur=20.0 / qblur=0.5 / vbv_maxrate=62500 / vbv_bufsize=78125 / nal_hrd=none / filler=0 / ip_ratio=1.10 / aq=1:0.50
    Default : Да
    Forced : Нет
    Аудио #1
    Идентификатор : 2
    Формат : AC-3
    Формат/Информация : Audio Coding 3
    Расширение режима : CM (complete main)
    Параметр Endianness формата : Big
    Идентификатор кодека : A_AC3
    Продолжительность : 2 ч. 20 м.
    Вид битрейта : Постоянный
    Битрейт : 640 Кбит/сек
    Каналы : 6 каналов
    Расположение каналов : Front: L C R, Side: L R, LFE
    Частота : 48,0 КГц
    Битовая глубина : 16 бит
    Метод сжатия : С потерями
    Размер потока : 642 Мбайт (5%)
    Заголовок : Дубляж - Лицензия
    Язык : Russian
    Default : Да
    Forced : Нет
    Аудио #2
    Идентификатор : 3
    Формат : AC-3
    Формат/Информация : Audio Coding 3
    Расширение режима : CM (complete main)
    Параметр Endianness формата : Big
    Идентификатор кодека : A_AC3
    Продолжительность : 2 ч. 20 м.
    Вид битрейта : Постоянный
    Битрейт : 192 Кбит/сек
    Каналы : 2 канала
    Расположение каналов : Front: L R
    Частота : 48,0 КГц
    Битовая глубина : 16 бит
    Метод сжатия : С потерями
    Размер потока : 193 Мбайт (2%)
    Заголовок : HDRezka Studio
    Язык : Russian
    Default : Нет
    Forced : Нет
    Аудио #3
    Идентификатор : 4
    Формат : AC-3
    Формат/Информация : Audio Coding 3
    Расширение режима : CM (complete main)
    Параметр Endianness формата : Big
    Идентификатор кодека : A_AC3
    Продолжительность : 2 ч. 20 м.
    Вид битрейта : Постоянный
    Битрейт : 448 Кбит/сек
    Каналы : 6 каналов
    Расположение каналов : Front: L C R, Side: L R, LFE
    Частота : 48,0 КГц
    Битовая глубина : 16 бит
    Метод сжатия : С потерями
    Размер потока : 449 Мбайт (4%)
    Заголовок : Дубляж - Лицензия
    Язык : Ukrainian
    Default : Нет
    Forced : Нет
    Аудио #4
    Идентификатор : 5
    Формат : AC-3
    Формат/Информация : Audio Coding 3
    Расширение режима : CM (complete main)
    Параметр Endianness формата : Big
    Идентификатор кодека : A_AC3
    Продолжительность : 2 ч. 20 м.
    Вид битрейта : Постоянный
    Битрейт : 640 Кбит/сек
    Каналы : 6 каналов
    Расположение каналов : Front: L C R, Side: L R, LFE
    Частота : 48,0 КГц
    Битовая глубина : 16 бит
    Метод сжатия : С потерями
    Размер потока : 642 Мбайт (5%)
    Заголовок : english
    Язык : English
    Default : Нет
    Forced : Нет
    Текст #1
    Идентификатор : 6
    Формат : UTF-8
    Идентификатор кодека : S_TEXT/UTF8
    Идентификатор кодека/Информация : UTF-8 Plain Text
    Заголовок : Full [License]
    Язык : Russian
    Default : Нет
    Forced : Нет
    Текст #2
    Идентификатор : 7
    Формат : UTF-8
    Идентификатор кодека : S_TEXT/UTF8
    Идентификатор кодека/Информация : UTF-8 Plain Text
    Заголовок : Full
    Язык : Russian
    Default : Нет
    Forced : Нет
    Текст #3
    Идентификатор : 8
    Формат : UTF-8
    Идентификатор кодека : S_TEXT/UTF8
    Идентификатор кодека/Информация : UTF-8 Plain Text
    Заголовок : Full
    Язык : English
    Default : Нет
    Forced : Нет
    Текст #4
    Идентификатор : 9
    Формат : UTF-8
    Идентификатор кодека : S_TEXT/UTF8
    Идентификатор кодека/Информация : UTF-8 Plain Text
    Заголовок : SDH
    Язык : English
    Default : Нет
    Forced : Нет
    Текст #5
    Идентификатор : 10
    Формат : UTF-8
    Идентификатор кодека : S_TEXT/UTF8
    Идентификатор кодека/Информация : UTF-8 Plain Text
    Заголовок : SDH Colored
    Язык : English
    Default : Нет
    Forced : Нет
    Меню
    00:00:00.000 : en:00:00:00.000
    00:08:00.105 : en:00:08:00.105
    00:11:31.983 : en:00:11:31.983
    00:16:57.183 : en:00:16:57.183
    00:21:09.643 : en:00:21:09.643
    00:27:21.265 : en:00:27:21.265
    00:33:03.356 : en:00:33:03.356
    00:38:09.245 : en:00:38:09.245
    00:42:29.130 : en:00:42:29.130
    00:46:41.799 : en:00:46:41.799
    00:54:14.334 : en:00:54:14.334
    00:58:45.480 : en:00:58:45.480
    01:04:55.266 : en:01:04:55.266
    01:10:26.139 : en:01:10:26.139
    01:16:28.250 : en:01:16:28.250
    01:26:44.699 : en:01:26:44.699
    01:32:06.938 : en:01:32:06.938
    01:36:22.443 : en:01:36:22.443
    01:41:53.149 : en:01:41:53.149
    01:49:48.415 : en:01:49:48.415
    01:53:45.610 : en:01:53:45.610
    01:58:52.083 : en:01:58:52.083
    02:07:20.132 : en:02:07:20.132
    02:13:40.095 : en:02:13:40.095

    Release was prepared by 60 - fps

  2. Longevity:
    2 years 6 months
    Posts:
    7
    Gender:
    Male
    нафига было это фуфло выкладывать... только время потеряли... столько фильмов ждущих 60 фпс... а это то уродство зачем ? и для кого
    27-Nov-2018 22:17 (after 6 months 14 days)
  3. Longevity:
    4 years 6 months
    Posts:
    2411
    Gender:
    Male
    10452нафига было это фуфло выкладывать... только время потеряли... столько фильмов ждущих 60 фпс... а это то уродство зачем ? и для кого
    Ну так ни кто смотреть не заставляет...
    27-Nov-2018 22:45 (after 27 minutes)
  4. Longevity:
    2 years 5 months
    Posts:
    99
    Gender:
    Male
    хороший фильм, спасибо
    30-Nov-2018 08:20 (after 2 days 9 hours)


You cannot post new topics in this forum
You cannot reply to topics in this forum
You cannot edit your posts in this forum
You cannot delete your posts in this forum
You cannot vote in polls in this forum
You cannot attach files in this forum
You cannot download files in this forum