[Цитировать]
Kryl

Красный отель / The Red Inn / L'auberge rouge (2007) BDRip 720p | 60 fps- Информация
Название: Красный отель
Оригинальное название: The Red Inn / L'auberge rouge
Год выхода: 2007
Жанр: Комедия, Криминал
Режиссер: Жерар Кравчик
Сценарий: Жан Оранш, Кристиан Клавье, Мишель Делгадо
Продюсер: Кристиан Фекнер, Александра Фешнер, Жан Луис
В ролях: Кристиан Клавье, Жерар Жюньо, Жозиан Баласко, Жан-Батист Монье, Сильви Жоли, Урбен Канселье, Лорен Гамелон
--Сюжет:
На диком перевале в Пиренеях стоит богом забытый отель. Немногие путешественники доходили до него, и уж точно никто не возвращался назад. Дело в том, что угрюмые хозяева, чтобы свести концы с концами, заставляют своего глухонемого сына убивать постояльцев и присваивать их добро. Однажды в этот отель заглянула группа паломников во главе со священником. Хозяйка гостиницы, терзаемая муками совести за страшные грехи, решила исповедаться.
Священник пришел в ужас, зная заранее, что всех постояльцев скоро ждет жестокая смерть. Но и выдать тайну исповеди он тоже не может. Всех жителей Красного отеля ждет «веселенькая» ночка, богатая невероятными событиями.
- Страна: Франция
Продолжительность: 01:35:07

Файл
Кодек: MPEG4/ISO/AVC H.264
Формат: MKV
Качество: BDRip 720p | 60 fps
Видео: 1280 x 534 (2.397) | 59.940 fps | 8.0 Мбит/сек
Аудио: AC3 | 5.1 | 48 kHz | 640 kbps | 16 bit | Дубляж |

Знаете ли Вы, что...

В основе истории подлинные события 1830-х годов, который имели место в провинции Ардеш. Хозяева «Красного отеля» бывшие фермеры Пьер и Мария Мартены были признаны виновными в том, что грабили и убивали своих постояльцев. Их гильотинировали во дворе собственной гостиницы, на глазах у 30 тысяч зевак.
Эта история также вдохновила Оноре де Бальзака на одноименный роман, выпущенный в 1831 году. Бальзак, впрочем, сильно изменил реальные события, подогнав их под собственные философские и художественные задачи. Его книга также была дважды экранизирована – в 1910-м Камилем де Морлоном и в 1923-м Жаном Эпштейном.
Идея сделать ремейк фильма Отан-Лара принадлежит актеру Кристиану Клавье; он очень любил этот фильм в детстве. В 2005-м Клавье написал сценарий и отправился с ним к продюсеру Кристиану Фешне.

MedifInfo

Видео
Идентификатор : 1
Формат : AVC
Формат/Информация : Advanced Video Codec
Профиль формата : High@L4.1
Параметр CABAC формата : Да
Параметр ReFrames формата : 3 кадра
Идентификатор кодека : V_MPEG4/ISO/AVC
Продолжительность : 1 ч. 35 м.
Вид битрейта : Переменный
Битрейт : 7638 Кбит/сек
Максимальный битрейт : 8000 Кбит/сек
Ширина : 1280 пикселей
Высота : 550 пикселей
Соотношение сторон : 2,35:1
Режим частоты кадров : Постоянный
Частота кадров : 60,000 кадров/сек
Частота кадров в оригинале : 59,940 кадров/сек
Стандарт вещания : PAL
Цветовое пространство : YUV
Субдискретизация насыщенности : 4:2:0
Битовая глубина : 8 бит
Тип развёртки : Прогрессивная
Бит/(Пиксели*Кадры) : 0.181
Размер потока : 5,08 Гбайт (90%)
Заголовок : www.60-fps.org
Язык : English
Default : Да
Forced : Нет
Основные цвета : BT.601 NTSC
Характеристики трансфера : BT.601
Коэффициенты матрицы : BT.601
colour_range : Limited
Аудио
Идентификатор : 2
Формат : AC-3
Формат/Информация : Audio Coding 3
Расширение режима : CM (complete main)
Параметр Endianness формата : Big
Идентификатор кодека : A_AC3
Продолжительность : 1 ч. 35 м.
Вид битрейта : Постоянный
Битрейт : 640 Кбит/сек
Каналы : 6 каналов
Расположение каналов : Front: L C R, Side: L R, LFE
Частота : 48,0 КГц
Битовая глубина : 16 бит
Метод сжатия : С потерями
Размер потока : 435 Мбайт (8%)
Заголовок : Дубляж
Default : Да
Forced : Нет

Релиз подготовлен 60 - fps

[Цитировать]
Paterson

Ребята, а кто знает... Какие новинки тут будут в ближайшую неделю???
Отпишитесь плиз, сэнкс). Улыбаюсь

[Цитировать]
Kryl

5843Ребята, а кто знает... Какие новинки тут будут в ближайшую неделю???
Отпишитесь плиз, сэнкс). Улыбаюсь
Ни кто не знает Улыбаюсь
 
Показать сообщения:    

Текущее время: 25-Май 00:30

Часовой пояс: UTC + 3


Вы не можете начинать темы
Вы не можете отвечать на сообщения
Вы не можете редактировать свои сообщения
Вы не можете удалять свои сообщения
Вы не можете голосовать в опросах
Вы не можете прикреплять файлы к сообщениям
Вы не можете скачивать файлы