-Название: Красная жара
Оригинальное название: Red Heat
Год выпуска: 1988
Страна: США
Жанр: боевик, триллер, комедия, криминал
Продолжительность: 01:44:10
Перевод: Профессиональный многоголосый
Субтитры: русские (Полные), английские (Полные)-Режиссер: Уолтер Хилл / Walter Hill-В ролях: Арнольд Шварценеггер (Capt. Ivan Danko), Джеймс Белуши (Det. Sgt. Art Ridzik), Питер Бойл (Cmdr. Lou Donnelly), Эд О’Росс (Viktor «Rosta» Rostavili), Лоренс Фишбёрн (Lt. Charlie Stobbs), Джина Гершон (Catherine «Cat» Manzetti), Ричард Брайт (Det. Sgt. Gallagher), Дж.В. Смит (Salim), Брент Дженнингс (Abdul Elijah), Гретхен Палмер (Hooker), Прюитт Тэйлор Винс (Night Clerk), Майкл Дж. Хэгерти (Pat Nunn)-Описание:
В доперестроечные времена торговля наркотиками была из ряда вон выходящим преступлением. На борьбу с грузинским мафиози, который используя все связи США, пытается пристрастить к кокаину советских граждан, выходит гроза преступного мира милиционер Иван Данко.
Этот парень не любит шутить, и доказательством серьезности его намерений служат большие мускулы и пистолет. Чтобы арестовать бандита, Иван направляется в Чикаго - рассадник капиталистической заразы. Там его помощником становится болтливый полицейский. Вместе они обезвреживают мафиози, разрушив при этом полгорода и расстреляв пару десятков негодяев.-Рейтинг
kinopoisk.ru: 6.569 (15 199)
imdb.com: 6.00 (41 951)
MPAA: R - Лицам до 17 лет обязательно присутствие взрослого-Качество: BDRip 1080p / 60 FPS
Формат: MKV
Видео кодек: AVC
Аудио кодек:AC3
Видео: AVC, 1920x1032 (1.860), 14000 kbps, 59,997 fps, 0,118 bpp
Аудио №1: русский / AC3 / 5.1 / 48 kHz / 640 kbps / 16 bit |Многоголосый, закадровый R5|
Аудио №2: русский / AC3 / 5.1 / 48 kHz / 640 kbps / 16 bit |Многоголосый, закадровый Карусель|
Аудио №3: английский / AC3 / 5.1 / 48 kHz / 640 kbps / 16 bit
Навигация по главам: есть- -

MI

General
Unique ID : 247343252918938513746913679587548029224 (0xBA1493E65DFA029FA4300A4C385B6128)
Complete name : A:\1080p 60fps\Красная жара 1080p 60fps.mkv
Format : Matroska
Format version : Version 4 / Version 2
File size : 11.6 GiB
Duration : 1h 44mn
Overall bit rate : 15.9 Mbps
Movie name : R.G. HD-Films by Tiberiumsun69 60fps
Encoded date : UTC 2014-12-25 10:28:13
Writing application : mkvmerge v7.4.0 ('Circles') 64bit built on Dec 12 2014 12:19:56
Writing library : libebml v1.3.0 + libmatroska v1.4.1
Attachment : Yes
Video
ID : 1
Format : AVC
Format/Info : Advanced Video Codec
Format profile : High@L4.1
Format settings, CABAC : Yes
Format settings, ReFrames : 4 frames
Codec ID : V_MPEG4/ISO/AVC
Duration : 1h 44mn
Bit rate : 14.0 Mbps
Width : 1 920 pixels
Height : 1 032 pixels
Display aspect ratio : 1.860
Frame rate : 59.997 fps
Color space : YUV
Chroma subsampling : 4:2:0
Bit depth : 8 bits
Scan type : Progressive
Bits/(Pixel*Frame) : 0.118
Stream size : 9.96 GiB (86%)
Title : R.G. HD-Films by Tiberiumsun69 60fps
Writing library : x264 core 142 r2491 24e4fed
Encoding settings : cabac=1 / ref=4 / deblock=1:-1:-1 / analyse=0x3:0 / me=umh / subme=10 / psy=1 / psy_rd=1.00:0.00 / mixed_ref=1 / me_range=32 / chroma_me=0 / trellis=2 / 8x8dct=1 / cqm=0 / deadzone=21,11 / fast_pskip=1 / chroma_qp_offset=-2 / threads=12 / lookahead_threads=1 / sliced_threads=0 / nr=0 / decimate=1 / interlaced=0 / bluray_compat=0 / constrained_intra=0 / bframes=5 / b_pyramid=2 / b_adapt=2 / b_bias=0 / direct=3 / weightb=1 / open_gop=0 / weightp=2 / keyint=250 / keyint_min=59 / scenecut=40 / intra_refresh=0 / rc=2pass / mbtree=0 / bitrate=14000 / ratetol=1.0 / qcomp=0.80 / qpmin=0 / qpmax=69 / qpstep=4 / cplxblur=20.0 / qblur=0.5 / ip_ratio=1.40 / pb_ratio=1.30 / aq=1:1.00
Language : English
Default : Yes
Forced : No
Audio #1
ID : 2
Format : AC-3
Format/Info : Audio Coding 3
Mode extension : CM (complete main)
Codec ID : A_AC3
Duration : 1h 44mn
Bit rate mode : Constant
Bit rate : 640 Kbps
Channel(s) : 6 channels
Channel positions : Front: L C R, Side: L R, LFE
Sampling rate : 48.0 KHz
Bit depth : 16 bits
Compression mode : Lossy
Stream size : 477 MiB (4%)
Title : Многоголосый, закадровый R5
Language : Russian
Default : Yes
Forced : No
Audio #2
ID : 3
Format : AC-3
Format/Info : Audio Coding 3
Mode extension : CM (complete main)
Codec ID : A_AC3
Duration : 1h 44mn
Bit rate mode : Constant
Bit rate : 640 Kbps
Channel(s) : 6 channels
Channel positions : Front: L C R, Side: L R, LFE
Sampling rate : 48.0 KHz
Bit depth : 16 bits
Compression mode : Lossy
Stream size : 477 MiB (4%)
Title : Многоголосый, закадровый Карусел
Language : Russian
Default : No
Forced : No
Audio #3
ID : 4
Format : AC-3
Format/Info : Audio Coding 3
Mode extension : CM (complete main)
Codec ID : A_AC3
Duration : 1h 44mn
Bit rate mode : Constant
Bit rate : 640 Kbps
Channel(s) : 6 channels
Channel positions : Front: L C R, Side: L R, LFE
Sampling rate : 48.0 KHz
Bit depth : 16 bits
Compression mode : Lossy
Stream size : 477 MiB (4%)
Title : Оригинал
Language : English
Default : No
Forced : No
Text #1
ID : 5
Format : UTF-8
Codec ID : S_TEXT/UTF8
Codec ID/Info : UTF-8 Plain Text
Title : Полные
Language : Russian
Default : No
Forced : No
Text #2
ID : 6
Format : UTF-8
Codec ID : S_TEXT/UTF8
Codec ID/Info : UTF-8 Plain Text
Title : Полные
Language : English
Default : No
Forced : No
Menu
00:00:00.000 : en:00:00:00.000
00:05:10.435 : en:00:05:10.435
00:14:53.226 : en:00:14:53.226
00:19:45.393 : en:00:19:45.393
00:25:35.075 : en:00:25:35.075
00:30:29.661 : en:00:30:29.661
00:39:35.331 : en:00:39:35.331
00:43:38.533 : en:00:43:38.533
00:50:14.345 : en:00:50:14.345
00:55:11.391 : en:00:55:11.391
00:59:50.086 : en:00:59:50.086
01:07:11.819 : en:01:07:11.819
01:14:39.892 : en:01:14:39.892
01:19:44.321 : en:01:19:44.321
01:27:43.842 : en:01:27:43.842
01:37:54.535 : en:01:37:54.535

Скриншоты

[60-fps.org].t304.torrent
Торрент: Зарегистрирован [ 2014-12-25 15:27 ] · ED62E265BE8221FF7018694CA9D0DFB4E12069E0

Скачать .torrent

Скачать

58 KB

Статус: проверено
Скачан: 29 раз
Поблагодарили:
Размер: 11,58 GB
 
Похожие Темы


Последний раз редактировалось: bot (2016-07-07 11:22), всего редактировалось 1 раз
 
Показать сообщения:    

Текущее время: 22-Фев 04:42

Часовой пояс: UTC + 3


Вы не можете начинать темы
Вы не можете отвечать на сообщения
Вы не можете редактировать свои сообщения
Вы не можете удалять свои сообщения
Вы не можете голосовать в опросах
Вы не можете прикреплять файлы к сообщениям
Вы можете скачивать файлы