Красная черепаха / The Red Turtle (2016) BDRip 720p | 60 fps- Информация
Название: Красная черепаха
Оригинальное название: The Red Turtle
Год выхода: 2016
Жанр: мультфильм, фэнтези
Режиссер: Майкл Дадок де Уит
Сценарий: Майкл Дадок де Уит, Паскаль Ферран
Продюсер: Паскаль Кочето, Венсан Мараваль, Грегуар Сорлат
--Сюжет:
Мужчина попадает на необитаемый остров. Ему удаётся построить плот, но далеко уплыть не получается — красная черепаха пресекает все его попытки к бегству.- Страна: Франция, Бельгия
Продолжительность: 01:55:05

Файл
Кодек: MPEG4/ISO/AVC/H.264
Формат: MKV
Качество: BDRip 720p | 60 fps
Видео: 1280x694 | 59.940 fps | 4.6 Мбит/сек
Аудио: AC3 | 5.1 | 48 kHz | 640 kbps | 16 bit | 16 bit | Музыкальное сопровождение (перевод не требуется) |

MedifInfo

Video
ID : 1
Format : AVC
Format/Info : Advanced Video Codec
Format profile : High@L4.1
Format settings, CABAC : Yes
Format settings, ReFrames : 9 frames
Codec ID : V_MPEG4/ISO/AVC
Duration : 1 h 20 min
Bit rate : 4 616 kb/s
Width : 1 280 pixels
Height : 694 pixels
Display aspect ratio : 1.85:1
Frame rate mode : Constant
Frame rate : 59.940 (60000/1001) FPS
Color space : YUV
Chroma subsampling : 4:2:0
Bit depth : 8 bits
Scan type : Progressive
Bits/(Pixel*Frame) : 0.087
Stream size : 2.61 GiB (86%)
Writing library : x264 core 146 r2538 121396c
Encoding settings : cabac=1 / ref=9 / deblock=1:0:0 / analyse=0x3:0x113 / me=umh / subme=8 / psy=1 / psy_rd=1.00:0.00 / mixed_ref=1 / me_range=24 / chroma_me=1 / trellis=2 / 8x8dct=1 / cqm=0 / deadzone=21,11 / fast_pskip=0 / chroma_qp_offset=-2 / threads=12 / lookahead_threads=3 / sliced_threads=0 / nr=0 / decimate=1 / interlaced=0 / bluray_compat=0 / constrained_intra=0 / bframes=5 / b_pyramid=2 / b_adapt=2 / b_bias=0 / direct=3 / weightb=1 / open_gop=0 / weightp=2 / keyint=250 / keyint_min=25 / scenecut=40 / intra_refresh=0 / rc_lookahead=40 / rc=crf / mbtree=0 / crf=17.5 / qcomp=0.60 / qpmin=0 / qpmax=69 / qpstep=4 / vbv_maxrate=14000 / vbv_bufsize=14000 / crf_max=0.0 / nal_hrd=none / filler=0 / ip_ratio=1.40 / pb_ratio=1.30 / aq=3:1.00
Language : English
Default : Yes
Forced : No
Audio
ID : 2
Format : AC-3
Format/Info : Audio Coding 3
Mode extension : CM (complete main)
Format settings, Endianness : Big
Codec ID : A_AC3
Duration : 1 h 20 min
Bit rate mode : Constant
Bit rate : 640 kb/s
Channel(s) : 6 channels
Channel positions : Front: L C R, Side: L R, LFE
Sampling rate : 48.0 kHz
Frame rate : 31.250 FPS (1536 spf)
Compression mode : Lossy
Stream size : 370 MiB (12%)
Title : Fre
Language : French
Default : Yes
Forced : No
Menu
00:00:00.000 : :00:00:00.000
00:07:15.685 : :00:07:15.685
00:17:34.720 : :00:17:34.720
00:27:39.366 : :00:27:39.366
00:36:32.148 : :00:36:32.148
00:46:00.257 : :00:46:00.257
00:55:55.143 : :00:55:55.143
01:07:01.893 : :01:07:01.893
01:16:37.426 : :01:16:37.426

[Цитировать]
Matias Orozco

Gracias !!! Улыбаюсь
 
Показать сообщения:    

Текущее время: 17-Янв 00:54

Часовой пояс: UTC + 3


Вы не можете начинать темы
Вы не можете отвечать на сообщения
Вы не можете редактировать свои сообщения
Вы не можете удалять свои сообщения
Вы не можете голосовать в опросах
Вы не можете прикреплять файлы к сообщениям
Вы не можете скачивать файлы