[Цитировать]
Kryl

«В этом году Санта Клаус не придёт»- Информация
Название: Крампус
Оригинальное название: Krampus
Год выхода: 2015
Жанр: Ужасы, фэнтези, комедия
Режиссер: Майкл Догерти
Сценарий: Тодд Кэйси, Майкл Догерти, Зэк Шилдс
Продюсер: Майкл Догерти, Алекс Гарсиа, Джон Дж. Джашни
В ролях: Адам Скотт, Тони Коллетт, Дэвид Кёкнер, Эллисон Толман, Кончата Феррелл, Эмджей Энтони, Стефания Оуэн, Криста Штадлер, Марк Аткин, Тревор Пау
--Сюжет:
История о демоне, который во время Рождества выискивает непослушных детей, чтобы наказать их.- - Страна: США, Новая Зеландия
Продолжительность: 01:37:40

Файл
Кодек: MPEG4/ISO/AVC H.264
Формат: MKV
Качество: BDRip 720p | 60 fps
Видео: 1280 x 536 (2.388) | 59.940 fps | 10.0 Мбит/сек
Аудио 1: AC3 | 5.1 | 48 kHz | 384 kbps | 16 bit | Дубляж (iTunes) |
Аудио 2: AC3 | 5.1 | 48 kHz | 384 kbps | 16 bit | ENG |
Субтитры: Русские, английские

MedifInfo

Видео
Идентификатор : 1
Формат : AVC
Формат/Информация : Advanced Video Codec
Профиль формата : High@L4.1
Параметр CABAC формата : Да
Параметр ReFrames формата : 3 кадра
Идентификатор кодека : V_MPEG4/ISO/AVC
Продолжительность : 1 ч. 37 м.
Вид битрейта : Переменный
Битрейт : 9774 Кбит/сек
Максимальный битрейт : 10000 Кбит/сек
Ширина : 1280 пикселей
Высота : 536 пикселей
Соотношение сторон : 2,40:1
Режим частоты кадров : Постоянный
Частота кадров : 59,880 кадров/сек
Частота кадров в оригинале : 59,940 кадров/сек
Стандарт вещания : PAL
Цветовое пространство : YUV
Субдискретизация насыщенности : 4:2:0
Битовая глубина : 8 бит
Тип развёртки : Прогрессивная
Бит/(Пиксели*Кадры) : 0.238
Размер потока : 6,67 Гбайт (91%)
Заголовок : www.60-fps.org
Язык : English
Default : Да
Forced : Нет
Основные цвета : BT.601 NTSC
Характеристики трансфера : BT.601
Коэффициенты матрицы : BT.601
colour_range : Limited
DURATION : 01:37:40.576000000
NUMBER_OF_FRAMES : 183143
NUMBER_OF_BYTES : 281307648
_STATISTICS_WRITING_APP : mkvmerge v7.6.0 ('Garden of Dreams') 32bit built on Feb 8 2015 12:51:39
_STATISTICS_WRITING_DATE_UTC : 2016-04-21 09:48:42
_STATISTICS_TAGS : BPS DURATION NUMBER_OF_FRAMES NUMBER_OF_BYTES
Аудио #1
Идентификатор : 2
Формат : AC-3
Формат/Информация : Audio Coding 3
Расширение режима : CM (complete main)
Параметр Endianness формата : Big
Идентификатор кодека : A_AC3
Продолжительность : 1 ч. 37 м.
Вид битрейта : Постоянный
Битрейт : 384 Кбит/сек
Каналы : 6 каналов
Расположение каналов : Front: L C R, Side: L R, LFE
Частота : 48,0 КГц
Битовая глубина : 16 бит
Метод сжатия : С потерями
Задержка видео : 24 мс.
Размер потока : 268 Мбайт (4%)
Заголовок : Дубляж [iTunes]
Язык : Russian
Default : Да
Forced : Нет
Аудио #2
Идентификатор : 3
Формат : AC-3
Формат/Информация : Audio Coding 3
Расширение режима : CM (complete main)
Параметр Endianness формата : Big
Идентификатор кодека : A_AC3
Продолжительность : 1 ч. 37 м.
Вид битрейта : Постоянный
Битрейт : 384 Кбит/сек
Каналы : 6 каналов
Расположение каналов : Front: L C R, Side: L R, LFE
Частота : 48,0 КГц
Битовая глубина : 16 бит
Метод сжатия : С потерями
Размер потока : 268 Мбайт (4%)
Заголовок : ENG
Язык : English
Default : Нет
Forced : Нет
Текст #1
Идентификатор : 4
Формат : UTF-8
Идентификатор кодека : S_TEXT/UTF8
Идентификатор кодека/Информация : UTF-8 Plain Text
Язык : Russian
Default : Нет
Forced : Нет
Текст #2
Идентификатор : 5
Формат : UTF-8
Идентификатор кодека : S_TEXT/UTF8
Идентификатор кодека/Информация : UTF-8 Plain Text
Язык : English
Default : Нет
Forced : Нет
Текст #3
Идентификатор : 6
Формат : VobSub
Режим смешивания : zlib
Идентификатор кодека : S_VOBSUB
Идентификатор кодека/Информация : The same subtitle format used on DVDs
Язык : English
Default : Нет
Forced : Нет
Меню
00:00:00.000 : en:Chapter 01
00:03:20.700 : en:Chapter 02
00:07:16.686 : en:Chapter 03
00:14:18.065 : en:Chapter 04
00:20:02.576 : en:Chapter 05
00:27:26.603 : en:Chapter 06
00:34:15.845 : en:Chapter 07
00:37:44.303 : en:Chapter 08
00:42:01.393 : en:Chapter 09
00:45:11.959 : en:Chapter 10
00:50:29.860 : en:Chapter 11
00:56:07.030 : en:Chapter 12
01:00:24.245 : en:Chapter 13
01:05:34.931 : en:Chapter 14
01:09:58.944 : en:Chapter 15
01:14:38.515 : en:Chapter 16
01:18:30.080 : en:Chapter 17
01:23:17.659 : en:Chapter 18
01:27:44.801 : en:Chapter 19
01:32:27.750 : en:Chapter 20

Релиз подготовлен 60 - fps

[Цитировать]
mimok

во, и самому делать не нужно, халява Подмигиваю

[Цитировать]
Kryl

5744во, и самому делать не нужно, халява Подмигиваю
Улыбаюсь
 
Показать сообщения:    

Текущее время: 06-Дек 15:06

Часовой пояс: UTC + 3


Вы не можете начинать темы
Вы не можете отвечать на сообщения
Вы не можете редактировать свои сообщения
Вы не можете удалять свои сообщения
Вы не можете голосовать в опросах
Вы не можете прикреплять файлы к сообщениям
Вы не можете скачивать файлы