[Цитировать]
Kryl

Крадущийся тигр, затаившийся дракон / Wo hu cang long- Информация
Название: Крадущийся тигр, затаившийся дракон
Оригинальное название: Wo hu cang long
Год выхода: 2000
Жанр: Боевик, драма, приключения
Режиссер: Энг Ли
Сценарий: Хуи-Линг Уэнг, Джеймс Шеймус, Куо Юнг Тсаи
Продюсер: Энг Ли, По Чу Чуй, Дун Пин
В ролях: Цзыи Чжан, Чоу Юнь-Фат, Мишель Йео, Чжан Чжэнь, Лун Сихун, Пеи-пеи Ченг, Фа Зенг Ли, Сянь Гао, Хай Янь, Де Минг Ванг, Ли Ли, Джин Тинг Чжан, Кай Ли
--Сюжет:
Легендарный мастер боевых искусств Ли Мубай отправляется на поиски магического меча зеленой стали, похищенного тайными злоумышленниками. Впереди его ждет зловещая фигура давнего противника, наемного убийцы, который после долгого отсутствия снова вернулся на тропу войны…
- Страна: Тайвань, Гонконг, США, Китай
Продолжительность: 02:00:14

Файл
Кодек: MPEG4/ISO/AVC H.264
Формат: MKV
Качество: BDRip 720p | 60 fps
Видео: 1280 x 534 (2.397) | 59.940 fps | 10.0 Мбит/сек
Аудио 1: AC3 | 2.0 | 48 kHz | 192 kbps | 16 bit | Профессиональный (многоголосый, закадровый) ОРТ |
Аудио 2: AC3 | 5.1 | 48 kHz | 384 kbps | 16 bit | Профессиональный многоголосый R5 |
Аудио 3: AC3 | 5.1 | 48 kHz | 384 kbps | 16 bit | Авторский одноголосый Ю. Живов |
Аудио 3: AC3 | 5.1 | 48 kHz | 384 kbps | 16 bit | Китайский |
Аудио 4: AC3 | 5.1 | 48 kHz | 384 kbps | 16 bit | ENG |
Субтитры: RU, ENG

MedifInfo

Видео
Идентификатор : 1
Формат : AVC
Формат/Информация : Advanced Video Codec
Профиль формата : High@L4.1
Параметр CABAC формата : Да
Параметр ReFrames формата : 3 кадра
Идентификатор кодека : V_MPEG4/ISO/AVC
Продолжительность : 2 ч. 0 м.
Вид битрейта : Переменный
Битрейт : 9382 Кбит/сек
Максимальный битрейт : 10000 Кбит/сек
Ширина : 1280 пикселей
Высота : 534 пикселя
Соотношение сторон : 2,40:1
Режим частоты кадров : Постоянный
Частота кадров : 59,880 кадров/сек
Частота кадров в оригинале : 59,940 кадров/сек
Стандарт вещания : PAL
Цветовое пространство : YUV
Субдискретизация насыщенности : 4:2:0
Битовая глубина : 8 бит
Тип развёртки : Прогрессивная
Бит/(Пиксели*Кадры) : 0.229
Размер потока : 7,88 Гбайт (83%)
Заголовок : www.60-fps.org
Язык : English
Default : Да
Forced : Нет
Основные цвета : BT.601 NTSC
Характеристики трансфера : BT.601
Коэффициенты матрицы : BT.601
colour_range : Limited
Аудио #1
Идентификатор : 2
Формат : AC-3
Формат/Информация : Audio Coding 3
Расширение режима : CM (complete main)
Параметр Endianness формата : Big
Идентификатор кодека : A_AC3
Продолжительность : 2 ч. 0 м.
Вид битрейта : Постоянный
Битрейт : 192 Кбит/сек
Каналы : 2 канала
Расположение каналов : Front: L R
Частота : 48,0 КГц
Битовая глубина : 16 бит
Метод сжатия : С потерями
Размер потока : 165 Мбайт (2%)
Заголовок : RUS | MVO (ОРТ)
Default : Нет
Forced : Нет
Аудио #2
Идентификатор : 3
Формат : AC-3
Формат/Информация : Audio Coding 3
Расширение режима : CM (complete main)
Параметр Endianness формата : Big
Идентификатор кодека : A_AC3
Продолжительность : 2 ч. 0 м.
Вид битрейта : Постоянный
Битрейт : 384 Кбит/сек
Каналы : 6 каналов
Расположение каналов : Front: L C R, Side: L R, LFE
Частота : 48,0 КГц
Битовая глубина : 16 бит
Метод сжатия : С потерями
Размер потока : 330 Мбайт (3%)
Заголовок : MVO | RUS (R5)
Язык : Russian
Default : Да
Forced : Да
Аудио #3
Идентификатор : 4
Формат : AC-3
Формат/Информация : Audio Coding 3
Расширение режима : CM (complete main)
Параметр Endianness формата : Big
Идентификатор кодека : A_AC3
Продолжительность : 2 ч. 0 м.
Вид битрейта : Постоянный
Битрейт : 384 Кбит/сек
Каналы : 6 каналов
Расположение каналов : Front: L C R, Side: L R, LFE
Частота : 48,0 КГц
Битовая глубина : 16 бит
Метод сжатия : С потерями
Размер потока : 330 Мбайт (3%)
Заголовок : RUS | AVO (Живов)
Язык : Russian
Default : Нет
Forced : Нет
Аудио #4
Идентификатор : 5
Формат : AC-3
Формат/Информация : Audio Coding 3
Расширение режима : CM (complete main)
Параметр Endianness формата : Big
Идентификатор кодека : A_AC3
Продолжительность : 2 ч. 0 м.
Вид битрейта : Постоянный
Битрейт : 384 Кбит/сек
Каналы : 6 каналов
Расположение каналов : Front: L C R, Side: L R, LFE
Частота : 48,0 КГц
Битовая глубина : 16 бит
Метод сжатия : С потерями
Размер потока : 330 Мбайт (3%)
Заголовок : Original | CH
Язык : Chinese
Default : Нет
Forced : Нет
Аудио #5
Идентификатор : 6
Формат : AC-3
Формат/Информация : Audio Coding 3
Расширение режима : CM (complete main)
Параметр Endianness формата : Big
Идентификатор кодека : A_AC3
Продолжительность : 2 ч. 0 м.
Вид битрейта : Постоянный
Битрейт : 384 Кбит/сек
Каналы : 6 каналов
Расположение каналов : Front: L C R, Side: L R, LFE
Частота : 48,0 КГц
Битовая глубина : 16 бит
Метод сжатия : С потерями
Размер потока : 330 Мбайт (3%)
Заголовок : ENG
Язык : English
Default : Нет
Forced : Нет
Текст #1
Идентификатор : 7
Формат : UTF-8
Идентификатор кодека : S_TEXT/UTF8
Идентификатор кодека/Информация : UTF-8 Plain Text
Заголовок : RUS
Язык : Russian
Default : Нет
Forced : Нет
Текст #2
Идентификатор : 8
Формат : UTF-8
Идентификатор кодека : S_TEXT/UTF8
Идентификатор кодека/Информация : UTF-8 Plain Text
Заголовок : ENG
Язык : English
Default : Нет
Forced : Нет
Меню
00:00:00.000 : zh:Chapter 1
00:05:00.000 : zh:Chapter 2
00:10:00.000 : zh:Chapter 3
00:15:00.000 : zh:Chapter 4
00:20:00.000 : zh:Chapter 5
00:25:00.000 : zh:Chapter 6
00:30:00.000 : zh:Chapter 7
00:35:00.000 : zh:Chapter 8
00:40:00.000 : zh:Chapter 9
00:45:00.000 : zh:Chapter 10
00:50:00.000 : zh:Chapter 11
00:55:00.000 : zh:Chapter 12
01:00:00.000 : zh:Chapter 13

Релиз подготовлен 60 - fps



Последний раз редактировалось: Kryl (2016-03-03 12:43), всего редактировалось 1 раз

[Цитировать]
Тимур Артыков

Я думал это 2 часть. Сделайте пожалуйста

[Цитировать]
Kryl

5354Я думал это 2 часть. Сделайте пожалуйста
Вторая только вебка очень плохого качества .

[Цитировать]
Тимур Артыков

Ну тогда ждём нормального рипа

[Цитировать]
ENIGMA

Большое Спасибо Солнышко

[Цитировать]
Тимур Артыков

Крадущийся тигр, затаившийся дракон / Wo hu cang long (2000) BDRip 720p BDRip 720p | 60 fps - касяк в начале поправь Улыбаюсь
 
Показать сообщения:    

Текущее время: 25-Май 00:22

Часовой пояс: UTC + 3


Вы не можете начинать темы
Вы не можете отвечать на сообщения
Вы не можете редактировать свои сообщения
Вы не можете удалять свои сообщения
Вы не можете голосовать в опросах
Вы не можете прикреплять файлы к сообщениям
Вы не можете скачивать файлы