Топ Топиков за 24 часа
 
Гадкий я 3 / Despicable Me 3 (2017) BDRip 1080p | 60 fps Гадкий я 3 / Despicable Me 3 (2017) BDRip 720p | 60 fps Моана / Moana (2016) BDRip 720p | 60 fps Красная черепаха / The Red Turtle (2016) BDRip 720p | 60 fps Зверопой / Sing (2016) BDRip 1080p | 60 fps Angry Birds в кино / The Angry Birds Movie (2016) BDRip 720p | 60 fps Ральф / Wreck-It Ralph (2012) BDRip 720p | 60 fps Зверополис / Zootopia (2016) BDRip 1080p | 60 fps Зверополис / Zootopia (2016) BDRip 720p | 60 fps Босс-молокосос / The Boss Baby (2017) BDRip 1080p | 60 fps Мадагаскар: Коллекция / Madagascar: Сollection (2005-2014) BDRip-AVC | 60 fps Головоломка / Inside Out (2015) BDRip 720p | 60 fps
  1. Стаж:
    2 года 6 месяцев
    Сообщений:
    97
    Пол:
    Не указан
     
    - Информация о фильме
    Оригинальное название: Котенок с улицы Лизюкова
    Год выхода: 1988
    Жанр: мультфильм, короткометражка
    Режиссер: Вячеслав Котёночкин
    Выпущено: CCCP
    Продолжительность: 00:09:19
    Перевод: Не требуется
    Роли озвучивали: Владимир Сошальский, Вячеслав Невинный, Маргарита Корабельникова, Ольга Аросева-Сюжет фильма
    О том, как котенок хотел превратиться в зверя, которого бы все боялись.-Файл
    Качество: BDRip 720p (исходник Blu-ray Disc)
    Видео: 960x720, 5279 Кбит/сек, 60.000 кадр/сек, AVC, x264, High@L4.1, 4:3, 0.127 Бит/[Пиксели*Кадры]
    Аудио 1: AC-3, 448 Кбит/сек, 6 канала(ов), 48,0 КГц - Оригинал / Русский
    Субтитры: Нет
    Форсированные субтитры: Нет
    Чаптеры (Главы): Нет- -

    Скриншоты

    MediaInfo

    Format : Matroska
    Format version : Version 2
    File size : 390 MiB
    Duration : 9mn 19s
    Overall bit rate : 5 843 Kbps
    Movie name : Котенок с улицы Лизюкова.(1988).BDRip.720p.[envy].[60fps]
    Encoded date : UTC 2015-05-17 22:01:38
    Writing application : mkvmerge v5.8.0 ('No Sleep / Pillow') built on Sep 2 2012 15:37:04
    Writing library : libebml v1.2.3 + libmatroska v1.3.0
    Video
    ID : 1
    Format : AVC
    Format/Info : Advanced Video Codec
    Format profile : High@L4.0
    Format settings, CABAC : Yes
    Format settings, ReFrames : 9 frames
    Codec ID : V_MPEG4/ISO/AVC
    Duration : 9mn 19s
    Bit rate : 5 279 Kbps
    Width : 960 pixels
    Height : 720 pixels
    Display aspect ratio : 4:3
    Frame rate mode : Constant
    Frame rate : 60.000 fps
    Color space : YUV
    Chroma subsampling : 4:2:0
    Bit depth : 8 bits
    Scan type : Progressive
    Bits/(Pixel*Frame) : 0.127
    Stream size : 352 MiB (90%)
    Title : Котенок с улицы Лизюкова.(1988).BDRip.720p.[envy].[60fps]
    Writing library : x264 core 130 r2273 b3065e6
    Encoding settings : cabac=1 / ref=9 / deblock=1:0:0 / analyse=0x3:0x113 / me=umh / subme=11 / psy=1 / psy_rd=1.00:0.00 / mixed_ref=1 / me_range=24 / chroma_me=1 / trellis=2 / 8x8dct=1 / cqm=0 / deadzone=21,11 / fast_pskip=0 / chroma_qp_offset=-2 / threads=12 / lookahead_threads=1 / sliced_threads=0 / nr=0 / decimate=1 / interlaced=0 / bluray_compat=0 / constrained_intra=0 / bframes=6 / b_pyramid=2 / b_adapt=2 / b_bias=0 / direct=3 / weightb=1 / open_gop=0 / weightp=2 / keyint=250 / keyint_min=25 / scenecut=40 / intra_refresh=0 / rc=crf / mbtree=0 / crf=17.0 / qcomp=0.60 / qpmin=0 / qpmax=69 / qpstep=4 / ip_ratio=1.40 / pb_ratio=1.30 / aq=2:1.00
    Language : Russian
    Default : Yes
    Forced : No
    Audio
    ID : 2
    Format : AC-3
    Format/Info : Audio Coding 3
    Mode extension : CM (complete main)
    Format settings, Endianness : Big
    Codec ID : A_AC3
    Duration : 9mn 19s
    Bit rate mode : Constant
    Bit rate : 448 Kbps
    Channel(s) : 6 channels
    Channel positions : Front: L C R, Side: L R, LFE
    Sampling rate : 48.0 KHz
    Bit depth : 16 bits
    Compression mode : Lossy
    Delay relative to video : 24ms
    Stream size : 29.9 MiB (8%)
    Title : Rus
    Language : Russian
    Default : Yes
    Forced : No


Вы не можете начинать темы
Вы не можете отвечать на сообщения
Вы не можете редактировать свои сообщения
Вы не можете удалять свои сообщения
Вы не можете голосовать в опросах
Вы не можете прикреплять файлы к сообщениям
Вы не можете скачивать файлы