[Цитировать]
BOT2

Котенок по имени Гав [5 историй] (1976-1982) Год выпуска: (1976-1982) г.
Жанр: Мультфильм, Детский, Семейный, Советский мультфильм
Страна: СССР
Режиссер: Лев Атаманов, Леонид Шварцман
Продолжительность: 5 х 00:09:00
Перевод: Не требуется-Описание: Приключения котёнка Гава и его друга, щенка Шарика.-Формат видео: MKV
Качество видео: BDRip 720p | 60fps
Видео кодек: H.264
Аудио кодек: AC3
Видео: 1280x952 (4:3), 60.000 fps, AVC, 7 281 Kbps
Аудио: AC3, 448 Kbps, 48.0 KHz, 6 ch-Релиз by:

Отчёт MediaInfo

General
Complete name : Котёнок по имени Гав.mkv
Format : Matroska
File size : 2.48 GiB
Duration : 45mn 53s
Overall bit rate : 7 734 Kbps
Encoded date : UTC 2015-05-13 10:39:15
Writing application : mkvmerge v6.1.0 ('Old Devil') built on Mar 4 2013 09:10:42
Writing library : libebml v1.3.0 + libmatroska v1.4.0
Video
ID : 1
Format : AVC
Format/Info : Advanced Video Codec
Format profile : High@L4.1
Format settings, CABAC : Yes
Format settings, ReFrames : 9 frames
Muxing mode : Container profile=Unknown@4.1
Codec ID : V_MPEG4/ISO/AVC
Duration : 45mn 53s
Bit rate : 7 281 Kbps
Width : 1 280 pixels
Height : 952 pixels
Display aspect ratio : 4:3
Frame rate : 60.000 fps
Color space : YUV
Chroma subsampling : 4:2:0
Bit depth : 8 bits
Scan type : Progressive
Bits/(Pixel*Frame) : 0.100
Stream size : 2.29 GiB (92%)
Writing library : x264 core 130 r2273 b3065e6
Encoding settings : cabac=1 / ref=9 / deblock=1:-1:-1 / analyse=0x3:0x133 / me=umh / subme=9 / psy=1 / psy_rd=1.00:0.10 / mixed_ref=1 / me_range=32 / chroma_me=1 / trellis=2 / 8x8dct=1 / cqm=0 / deadzone=21,11 / fast_pskip=0 / chroma_qp_offset=-3 / threads=12 / lookahead_threads=3 / sliced_threads=0 / nr=0 / decimate=1 / interlaced=0 / bluray_compat=0 / constrained_intra=0 / bframes=10 / b_pyramid=2 / b_adapt=2 / b_bias=0 / direct=3 / weightb=1 / open_gop=0 / weightp=2 / keyint=250 / keyint_min=25 / scenecut=40 / intra_refresh=0 / rc_lookahead=50 / rc=2pass / mbtree=1 / bitrate=7281 / ratetol=1.0 / qcomp=0.60 / qpmin=0 / qpmax=69 / qpstep=4 / cplxblur=20.0 / qblur=0.5 / ip_ratio=1.40 / aq=1:1.00
Audio
ID : 2
Format : AC-3
Format/Info : Audio Coding 3
Mode extension : CM (complete main)
Codec ID : A_AC3
Duration : 45mn 53s
Bit rate mode : Constant
Bit rate : 448 Kbps
Channel(s) : 6 channels
Channel positions : Front: L C R, Side: L R, LFE
Sampling rate : 48.0 KHz
Bit depth : 16 bits
Stream size : 147 MiB (6%)

Топик был перенесен из форума Temp в форум Мультфильмы 60fps
KRYL

[Цитировать]
ewgesha2222

дайте скорость пожалуйста

[Цитировать]
BOT2

Добрый день! Я же не могу раздавать круглосуточно! Сейчас стою на раздаче

[Цитировать]
kamikkadze

Помогаю раздавать, отдача у меня сейчас идет 6,5 мб
 
Показать сообщения:    

Текущее время: 08-Дек 08:59

Часовой пояс: UTC + 3


Вы не можете начинать темы
Вы не можете отвечать на сообщения
Вы не можете редактировать свои сообщения
Вы не можете удалять свои сообщения
Вы не можете голосовать в опросах
Вы не можете прикреплять файлы к сообщениям
Вы не можете скачивать файлы