1. Longevity:
    4 years 6 months
    Posts:
    268
    Gender:
    Male
    Заказать фильмы, клипы или любое другое видео в качестве 60fps может каждый!!!
    Стоимость одного видео 50руб. !!!
    Пишите Талямба в личку, всё обсудите...
    Кот под прикрытием / Spycies (2019) BDRip 1080p | 60 fps
    Информация
    Название: Кот под прикрытием
    Оригинальное название: Spycies
    Год выхода: 2019
    Жанр: Мультфильм, приключения, полнометражный
    Режиссер: Гийом Ивернель, Чжан Чжии
    В ролях: Кирк Торнтон, Дино Андраде, Салли Саффиоти, Карен Страссман, Джемисон Прайс, Лорен Александр, Деби Дерриберри, Барбара Гудсон, Дэвид Лодж, Дави Мурье
    Страна: Китай, Франция
    Продолжительность: 1 ч. 39 м. 34 с.

    --Сюжет:
    Два полицейских спецагента должны раскрыть дело о похищении секретного минерала. Проблема в том, что каждый из них привык работать исключительно своими, отличными от напарника, методами. Да и сами они, мягко говоря, совсем не похожи друг на друга.
    --
    Файл
    Кодек: V_MPEG4/ISO/AVC
    Формат: MKV
    Качество: BDRip 1080p | 60 fps
    Видео: 1920 x 808 (2,40:1) | 60,000 fps | 15.0 Мбит/сек
    Аудио 1: 48 kHz, AC3 Dolby Digital, 5.1, 384 Kbps | Дублированный | Лицензия |
    Аудио 2: 48 kHz, Digital Theater Systems, 5.1, 1152 Kbps | Оригинал |

    MedifInfo

    Общее
    Уникальный идентификатор : 237097301672094598349576323718402218095 (0xB25F47805C3133E0A775DEA8EA13186F)
    Полное имя : D:\Mult\Кот под прикрытием.2019.1080p.BDRip.60fps.mkv
    Формат : Matroska
    Версия формата : Version 2
    Размер файла : 11,5 Гбайт
    Продолжительность : 1 ч. 39 м.
    Общий поток : 16,5 Мбит/сек
    Название фильма : Кот под прикрытием https://60-fps.org/
    Дата кодирования : UTC 2020-12-13 10:36:36
    Программа кодирования : mkvmerge v5.8.0 ('No Sleep / Pillow') built on Sep 2 2012 15:37:04
    Библиотека кодирования : libebml v1.2.3 + libmatroska v1.3.0
    Attachments : Poster.jpg
    Видео
    Идентификатор : 1
    Формат : AVC
    Формат/Информация : Advanced Video Codec
    Профиль формата : [email protected]
    Параметр CABAC формата : Да
    Параметр ReFrames формата : 5 кадров
    Режим смешивания : Header stripping
    Идентификатор кодека : V_MPEG4/ISO/AVC
    Продолжительность : 1 ч. 39 м.
    Битрейт : 15,0 Мбит/сек
    Ширина : 1920 пикселей
    Высота : 808 пикселей
    Соотношение сторон : 2,40:1
    Режим частоты кадров : Постоянный
    Частота кадров : 60,000 кадров/сек
    Цветовое пространство : YUV
    Субдискретизация насыщенности : 4:2:0
    Битовая глубина : 8 бит
    Тип развёртки : Прогрессивная
    Бит/(Пиксели*Кадры) : 0.161
    Размер потока : 10,2 Гбайт (89%)
    Библиотека кодирования : x264 core 146 r2538 121396c
    Настройки программы : cabac=1 / ref=5 / deblock=1:-1:-1 / analyse=0x3:0x113 / me=hex / subme=8 / psy=1 / psy_rd=1.00:0.15 / mixed_ref=1 / me_range=16 / chroma_me=1 / trellis=1 / 8x8dct=1 / cqm=0 / deadzone=21,11 / fast_pskip=1 / chroma_qp_offset=-3 / threads=12 / lookahead_threads=3 / sliced_threads=0 / nr=0 / decimate=1 / interlaced=0 / bluray_compat=0 / constrained_intra=0 / bframes=3 / b_pyramid=2 / b_adapt=2 / b_bias=0 / direct=3 / weightb=1 / open_gop=0 / weightp=2 / keyint=599 / keyint_min=59 / scenecut=40 / intra_refresh=0 / rc_lookahead=40 / rc=2pass / mbtree=1 / bitrate=15000 / ratetol=1.0 / qcomp=0.60 / qpmin=0 / qpmax=69 / qpstep=4 / cplxblur=20.0 / qblur=0.5 / vbv_maxrate=50000 / vbv_bufsize=50000 / nal_hrd=none / filler=0 / ip_ratio=1.40 / aq=1:1.00
    Default : Да
    Forced : Нет
    Аудио #1
    Идентификатор : 2
    Формат : AC-3
    Формат/Информация : Audio Coding 3
    Расширение режима : CM (complete main)
    Параметр Endianness формата : Big
    Режим смешивания : Header stripping
    Идентификатор кодека : A_AC3
    Продолжительность : 1 ч. 39 м.
    Вид битрейта : Постоянный
    Битрейт : 384 Кбит/сек
    Каналы : 6 каналов
    Расположение каналов : Front: L C R, Side: L R, LFE
    Частота : 48,0 КГц
    Частота кадров : 31,250 кадров/сек (1536 spf)
    Битовая глубина : 16 бит
    Метод сжатия : С потерями
    Размер потока : 273 Мбайт (2%)
    Заголовок : DUB (iTunes)
    Язык : Russian
    Default : Да
    Forced : Да
    Аудио #2
    Идентификатор : 3
    Формат : DTS
    Формат/Информация : Digital Theater Systems
    Режим : 16
    Параметр Endianness формата : Big
    Режим смешивания : Header stripping
    Идентификатор кодека : A_DTS
    Продолжительность : 1 ч. 39 м.
    Вид битрейта : Постоянный
    Битрейт : 1152 Кбит/сек
    Каналы : 6 каналов
    Расположение каналов : Front: L C R, Side: L R, LFE
    Частота : 48,0 КГц
    Частота кадров : 93,750 кадра/сек (512 spf)
    Битовая глубина : 16 бит
    Метод сжатия : С потерями
    Размер потока : 820 Мбайт (7%)
    Заголовок : DTS 5.1
    Язык : English
    Default : Нет
    Forced : Нет

    Release was prepared by 60-fps.org



You cannot post new topics in this forum
You cannot reply to topics in this forum
You cannot edit your posts in this forum
You cannot delete your posts in this forum
You cannot vote in polls in this forum
You cannot attach files in this forum
You cannot download files in this forum