Человек-паук: Через вселенные / Spider-Man: Into the Spider-Verse (2018) BDRip 1080p | 60 fps Как приручить дракона 3 / How to Train Your Dragon: The Hidden World (2019) BDRip 1080p | 60 fps Аладдин / Aladdin (1992) BDRip 1080p | 60 fps Человек-паук: Через вселенные / Spider-Man: Into the Spider-Verse (2018) BDRip 720p | 60 fps Тайная жизнь домашних животных / The Secret Life of Pets (2016) BDRip 1080p | 60 fps ВАЛЛ·И / WALL-E (2008) BDRip-AVC | 60 fps Холодное сердце / Frozen (2013) BDRip-AVC | 60 fps Астерикс и тайное зелье / Astérix: Le secret de la potion magique (2018) BDRip 720p | 60 fps
  1. Longevity:
    5 years 1 month
    Posts:
    311
    Gender:
    Male
    Космический пират Харлок / Space Pirate Captain Harlock (2013) BDRip 720р | 60fps «Is he an enemy of the state... or its last hope?»- Год выпуска: 2013
    Производство: Япония, США, Франция / Toei Animation Company
    Жанр: Мультфильм, Фантастика, Боевик, Приключения-Режиссер: Синдзи Арамаки
    Сценарий: Харутоши Фукуи, Лэйдзи Мацумото, Кийото Такэути
    Актеры: Шун Огури, Аои Ю, Аяно Фукуда, Арата Фурута, Киёси Кобаяси, Харума Миура, Морикава Тосиюки, Тикао Оцука, Маая Сакамото, Миюки Савасиро-Описание фильма:
    Далекое будущее. Преступная корпорация Гайя стала злейшим врагом Земли, отобрав у людей все: свободу, дом, будущее… Казалось, что надежды на спасение нет… Но, появился Он — космический пират Харлок, капитан призрачного корабля Аркадия. Беглец, готовый сражаться за Землю. Кто Он, герой или преступник?..-Перевод: Профессиональный дублированный (Лицензия R5 "Мистерия Звука") + Одноголосый закадровый (Ю. Живов) на не переведённые места
    Субтитры: Вшитые,Не отключаемые Forsed
    Язык субтитров: Русский- -Дата мировой премьеры: 3 сентября 2013, Италия Международный кинофестиваль в Венеции
    Дата российской премьеры: 15 мая 2014, «Централ Партнершип»
    Дата выхода DVD релиза: 11 сентября 2014, «Мистерия Звука»-Продолжительность: 01:55:06
    Качество видео: BDRip 720p-Видеокодек: MPEG-4 AVC/H.264
    Битрейт видео: ~ 6 466 Kbps
    Размер кадра: 1280 x 544
    Аудио: AC3 5.1, 48.0 KHz, 384 Kbps - Русский-MediaInfo:
    General
    Unique ID : 233246029178706022784189750593255458661 (0xAF798D1B79536A1BA6511CBF18E94765)
    Complete name : D:\Торренты\Space Pirate Captain Harlock 60fps.mkv
    Format : Matroska
    Format version : Version 2
    File size : 5.62 GiB
    Duration : 1h 55mn
    Overall bit rate : 6 989 Kbps
    Encoded date : UTC 2014-10-03 13:49:28
    Writing application : mkvmerge v6.9.1 ('Blue Panther') 64bit built on Apr 18 2014 18:23:38
    Writing library : libebml v1.3.0 + libmatroska v1.4.1
    Video
    ID : 1
    Format : AVC
    Format/Info : Advanced Video Codec
    Format profile : High@L4.1
    Format settings, CABAC : Yes
    Format settings, ReFrames : 6 frames
    Codec ID : V_MPEG4/ISO/AVC
    Duration : 1h 55mn
    Bit rate : 6 466 Kbps
    Width : 1 280 pixels
    Height : 544 pixels
    Display aspect ratio : 2.35:1
    Frame rate mode : Constant
    Frame rate : 59.880 fps
    Original frame rate : 59.940 fps
    Color space : YUV
    Chroma subsampling : 4:2:0
    Bit depth : 8 bits
    Scan type : Progressive
    Bits/(Pixel*Frame) : 0.155
    Stream size : 5.20 GiB (93%)
    Writing library : x264 core 125 r2208 d9d2288
    Encoding settings : cabac=1 / ref=6 / deblock=0:0:0 / analyse=0x3:0x133 / me=umh / subme=8 / psy=1 / psy_rd=1.00:0.11 / mixed_ref=1 / me_range=20 / chroma_me=1 / trellis=2 / 8x8dct=1 / cqm=0 / deadzone=21,11 / fast_pskip=0 / chroma_qp_offset=-3 / threads=6 / lookahead_threads=1 / sliced_threads=0 / nr=0 / decimate=0 / interlaced=0 / bluray_compat=0 / constrained_intra=0 / bframes=7 / b_pyramid=2 / b_adapt=2 / b_bias=0 / direct=1 / weightb=1 / open_gop=0 / weightp=2 / keyint=600 / keyint_min=59 / scenecut=40 / intra_refresh=0 / rc=crf / mbtree=0 / crf=18.0 / qcomp=0.63 / qpmin=10 / qpmax=51 / qpstep=4 / ip_ratio=1.40 / pb_ratio=1.30 / aq=1:1.20
    Default : Yes
    Forced : No
    Audio
    ID : 2
    Format : AC-3
    Format/Info : Audio Coding 3
    Mode extension : CM (complete main)
    Format settings, Endianness : Big
    Codec ID : A_AC3
    Duration : 1h 55mn
    Bit rate mode : Constant
    Bit rate : 384 Kbps
    Channel(s) : 6 channels
    Channel positions : Front: L C R, Side: L R, LFE
    Sampling rate : 48.0 KHz
    Bit depth : 16 bits
    Compression mode : Lossy
    Stream size : 316 MiB (5%)
    Default : Yes
    Forced : No
    Скринлист:
    Скриншоты:
  2. Longevity:
    3 years 1 month
    Posts:
    99
    Gender:
    Male
    Японцы снимают неплохие мультфильмы...
    19-Sep-2017 22:30 (after 2 years 11 months)


You cannot post new topics in this forum
You cannot reply to topics in this forum
You cannot edit your posts in this forum
You cannot delete your posts in this forum
You cannot vote in polls in this forum
You cannot attach files in this forum
You cannot download files in this forum