[Цитировать]
Kryl

«Нельзя играть по правилам, когда их нет»- Информация
Название: Коррупционер
Оригинальное название: The Corruptor
Год выхода: 1999
Жанр: боевик, триллер, драма, криминал, детектив
Режиссер: Джеймс Фоули
Сценарий: Роберт Пуччи
Продюсер: Дэн Халстед, Билл Карраро, Тэжэньцэ Чан
В ролях: Чоу Юнь-Фат, Марк Уолберг, Рик Янг, Пол Бен-Виктор, Джонкит Ли, Эндрю Пэнг, Элизабет Линдси, Брайан Кокс, Байрон Манн, Ким Чан, Билл МакДональд, Сьюзи Трин
--Сюжет:
Лейтенант Ник Чен — один из наиболее заслуженных полицейских Нью-Йорка. Как китайский иммигрант, Чен использовал связи с Триадой, чтобы продвинуться по служебной лестнице. Теперь он поддерживает порядок в Чайна-тауне. Когда началась война между Тонгами и Фукинскими Драконами Чен получает в напарники новичка-идеалиста Денни Уоллеса, который поначалу не осознает всю власть и влияние своего нового босса…- Страна: США
Продолжительность: 01:50:10

Файл
Кодек: MPEG4/ISO/AVC H.264
Формат: MKV
Качество: BDRip 720p | 60 fps
Видео: 1280 x 534 (2.397) | 59.940 fps | 8.0 Мбит/сек
Аудио 1: AC3 | 5.1 | 48 kHz | 448 kbps | 16 bit | Дублированный, West Video |
Аудио 2: AC3 | 5.1 | 48 kHz | 448 kbps | 16 bit | Профессиональный двухголосый, d2Lab |
Аудио 3: AC3 | 5.1 | 48 kHz | 448 kbps | 16 bit | Авторский, Ю. Живов |
Аудио 4: AC3 | 2.0 | 48 kHz | 192 kbps | 16 bit | Авторский, А.Гаврилов |
Аудио 5: AC3 | 5.1 | 48 kHz | 640 kbps | 16 bit | ENG |
Субтитры: русские (Forced, d2Lab), русские (Full), русские (d2Lab), английские (SDH)

MedifInfo

Видео
Идентификатор : 1
Формат : AVC
Формат/Информация : Advanced Video Codec
Профиль формата : High@L4.1
Параметр CABAC формата : Да
Параметр ReFrames формата : 3 кадра
Идентификатор кодека : V_MPEG4/ISO/AVC
Продолжительность : 1 ч. 50 м.
Вид битрейта : Переменный
Битрейт : 7772 Кбит/сек
Максимальный битрейт : 8000 Кбит/сек
Ширина : 1280 пикселей
Высота : 534 пикселя
Соотношение сторон : 2,40:1
Режим частоты кадров : Постоянный
Частота кадров : 59,880 кадров/сек
Частота кадров в оригинале : 59,940 кадров/сек
Стандарт вещания : PAL
Цветовое пространство : YUV
Субдискретизация насыщенности : 4:2:0
Битовая глубина : 8 бит
Тип развёртки : Прогрессивная
Бит/(Пиксели*Кадры) : 0.190
Размер потока : 5,98 Гбайт (77%)
Язык : English
Default : Да
Forced : Нет
Основные цвета : BT.601 NTSC
Характеристики трансфера : BT.601
Коэффициенты матрицы : BT.601
colour_range : Limited
Аудио #1
Идентификатор : 2
Формат : AC-3
Формат/Информация : Audio Coding 3
Расширение режима : CM (complete main)
Параметр Endianness формата : Big
Идентификатор кодека : A_AC3
Продолжительность : 1 ч. 50 м.
Вид битрейта : Постоянный
Битрейт : 448 Кбит/сек
Каналы : 6 каналов
Расположение каналов : Front: L C R, Side: L R, LFE
Частота : 48,0 КГц
Битовая глубина : 16 бит
Метод сжатия : С потерями
Размер потока : 353 Мбайт (4%)
Заголовок : Дублированный, West Video
Язык : Russian
Default : Да
Forced : Нет
Аудио #2
Идентификатор : 3
Формат : AC-3
Формат/Информация : Audio Coding 3
Расширение режима : CM (complete main)
Параметр Endianness формата : Big
Идентификатор кодека : A_AC3
Продолжительность : 1 ч. 50 м.
Вид битрейта : Постоянный
Битрейт : 448 Кбит/сек
Каналы : 6 каналов
Расположение каналов : Front: L C R, Side: L R, LFE
Частота : 48,0 КГц
Битовая глубина : 16 бит
Метод сжатия : С потерями
Размер потока : 353 Мбайт (4%)
Заголовок : Профессиональный двухголосый, d2Lab
Язык : Russian
Default : Нет
Forced : Нет
Аудио #3
Идентификатор : 4
Формат : AC-3
Формат/Информация : Audio Coding 3
Расширение режима : CM (complete main)
Параметр Endianness формата : Big
Идентификатор кодека : A_AC3
Продолжительность : 1 ч. 50 м.
Вид битрейта : Постоянный
Битрейт : 448 Кбит/сек
Каналы : 6 каналов
Расположение каналов : Front: L C R, Side: L R, LFE
Частота : 48,0 КГц
Битовая глубина : 16 бит
Метод сжатия : С потерями
Размер потока : 353 Мбайт (4%)
Заголовок : Авторский, Ю. Живов
Язык : Russian
Default : Нет
Forced : Нет
Аудио #4
Идентификатор : 5
Формат : AC-3
Формат/Информация : Audio Coding 3
Расширение режима : CM (complete main)
Параметр Endianness формата : Big
Идентификатор кодека : A_AC3
Продолжительность : 1 ч. 50 м.
Вид битрейта : Постоянный
Битрейт : 192 Кбит/сек
Каналы : 2 канала
Расположение каналов : Front: L R
Частота : 48,0 КГц
Битовая глубина : 16 бит
Метод сжатия : С потерями
Размер потока : 151 Мбайт (2%)
Заголовок : Авторский, А.Гаврилов
Язык : Russian
Default : Нет
Forced : Нет
Аудио #5
Идентификатор : 6
Формат : AC-3
Формат/Информация : Audio Coding 3
Расширение режима : CM (complete main)
Параметр Endianness формата : Big
Идентификатор кодека : A_AC3
Продолжительность : 1 ч. 50 м.
Вид битрейта : Постоянный
Битрейт : 640 Кбит/сек
Каналы : 6 каналов
Расположение каналов : Front: L C R, Side: L R, LFE
Частота : 48,0 КГц
Битовая глубина : 16 бит
Метод сжатия : С потерями
Размер потока : 504 Мбайт (6%)
Заголовок : ENG
Язык : English
Default : Нет
Forced : Нет
Текст #1
Идентификатор : 7
Формат : UTF-8
Идентификатор кодека : S_TEXT/UTF8
Идентификатор кодека/Информация : UTF-8 Plain Text
Заголовок : Forced, d2Lab
Язык : Russian
Default : Да
Forced : Нет
Текст #2
Идентификатор : 8
Формат : UTF-8
Идентификатор кодека : S_TEXT/UTF8
Идентификатор кодека/Информация : UTF-8 Plain Text
Заголовок : Full
Язык : Russian
Default : Нет
Forced : Нет
Текст #3
Идентификатор : 9
Формат : UTF-8
Идентификатор кодека : S_TEXT/UTF8
Идентификатор кодека/Информация : UTF-8 Plain Text
Заголовок : d2Lab
Язык : Russian
Default : Нет
Forced : Нет
Текст #4
Идентификатор : 10
Формат : UTF-8
Идентификатор кодека : S_TEXT/UTF8
Идентификатор кодека/Информация : UTF-8 Plain Text
Заголовок : SDH
Язык : English
Default : Нет
Forced : Нет
Меню
00:00:00.000 : en:Chapter 01
00:02:45.163 : en:Chapter 02
00:04:05.870 : en:Chapter 03
00:08:43.188 : en:Chapter 04
00:12:40.509 : en:Chapter 05
00:17:49.692 : en:Chapter 06
00:21:54.354 : en:Chapter 07
00:26:32.965 : en:Chapter 08
00:29:13.292 : en:Chapter 09
00:32:33.826 : en:Chapter 10
00:41:45.710 : en:Chapter 11
00:44:52.188 : en:Chapter 12
00:52:50.208 : en:Chapter 13
00:59:44.037 : en:Chapter 14
01:05:25.045 : en:Chapter 15
01:07:11.568 : en:Chapter 16
01:12:31.512 : en:Chapter 17
01:15:24.478 : en:Chapter 18
01:22:37.993 : en:Chapter 19
01:26:59.380 : en:Chapter 20
01:30:13.615 : en:Chapter 21
01:41:08.979 : en:Chapter 22
01:45:10.595 : en:Chapter 23
01:50:09.603 : en:Chapter 24

Релиз подготовлен 60 - fps

 
Показать сообщения:    

Текущее время: 09-Дек 22:19

Часовой пояс: UTC + 3


Вы не можете начинать темы
Вы не можете отвечать на сообщения
Вы не можете редактировать свои сообщения
Вы не можете удалять свои сообщения
Вы не можете голосовать в опросах
Вы не можете прикреплять файлы к сообщениям
Вы не можете скачивать файлы