Властелин колец: Трилогия / The Lord of the Rings: Trilogy (2001-2003) BDRip-AVC | Extended Cut | 60 fps Принц Персии: Пески времени / Prince of Persia: The Sands of Time (2010) BDRip 1080p | 60 fps День, когда Земля остановилась / The Day the Earth Stood Still (2008) BDRip 1080p | 60 fps Охота / The Hunt (2020) BDRip 1080p | 60 fps Удивительное путешествие доктора Дулиттла / Dolittle (2020) BDRip 1080p | 60 fps Пятый элемент / The Fifth Element (1997) BDRip 1080p | 60 fps К звёздам / Ad Astra (2019) BDRip 1080p | 60 fps Фантастическая четверка : Дилогия / Fantastic Four: Dilogy (2005-2007) BDRip 1080p | 60 fps
  1. Longevity:
    6 years
    Posts:
    311
    Gender:
    Male
    Король Артур / King Arthur (2004) BDRip 720p | Directors cut | 60fps«The Untold True Story That Inspired The Legend»- Информация о фильме
    Название: Король Артур
    Оригинальное название: King Arthur
    Год выхода: 2004
    Жанр: Боевик, драма, приключения, военный, история
    Режиссер: Антуан Фукуа
    Продюсер: Джерри Брукхаймер, Нед Дауд, Джеймс Флинн
    В ролях: Клайв Оуэн, Кира Найтли, Рэй Уинстон, Мэдс Миккелсен, Йоан Гриффит, Джоэль Эдгертон, Хью Дэнси, Рэй Стивенсон, Стивен Диллэйн, Стеллан Скарсгард
    Описание фильма:
    Фильм — о легендарной исторической личности. В нем большое внимание уделено историческим фактам и политическим событиям, имевшим место в период правления короля Артура. Но картина обещает совместить в себе как реальные исторические события, имевшие место в провинции Британия сразу после распада Великой Римской Империи, так и мифы о подвигах рыцарей короля Артура…
    Страна: США, Великобритания, Ирландия
    Студия: Green Hills Productions, Jerry Bruckheimer Films, Touchstone Pictures
    Продолжительность: 02:21:38
    Перевод: Дублированный
    Субтитры: Отсутствуют

    Дата мировой премьеры: 28 июня 2004
    Дата российской премьеры: 12 августа 2004, «Каскад»
    Дата выхода DVD релиза: 28 сентября 2010, «Уолт Дисней Компани СНГ»
    Файл
    Формат: MKV
    Кодек: MPEG-4 AVC/H.264
    Качество: BDRip 720p
    Видео: ~ 6458 Кбит/сек, 1280 x 552, 59.940 кадров/сек
    Аудио: AC3 5.1, 48.0 KHz, 384 Кбит/сек - Русский

    MediaInfo

    Общее
    Уникальный идентификатор : 187077091726809908471199056465754821858 (0x8CBDBCBECFC590E2824F1BCA1D0B94E2)
    Полное имя : D:\Торренты\King Arthur 60 fps.mkv
    Формат : Matroska
    Версия формата : Version 2
    Размер файла : 6,91 Гбайт
    Продолжительность : 2 ч. 21 м.
    Общий поток : 6981 Кбит/сек
    Дата кодирования : UTC 2015-08-19 18:50:40
    Программа кодирования : mkvmerge v6.1.0 ('Old Devil') built on Mar 4 2013 09:10:42
    Библиотека кодирования : libebml v1.3.0 + libmatroska v1.4.0
    Видео
    Идентификатор : 1
    Формат : AVC
    Формат/Информация : Advanced Video Codec
    Профиль формата : High@L4.1
    Параметр CABAC формата : Да
    Параметр ReFrames формата : 6 кадров
    Идентификатор кодека : V_MPEG4/ISO/AVC
    Продолжительность : 2 ч. 21 м.
    Битрейт : 6458 Кбит/сек
    Ширина : 1280 пикселей
    Высота : 552 пикселя
    Соотношение сторон : 2,35:1
    Режим частоты кадров : Постоянный
    Частота кадров : 59,880 кадров/сек
    Частота кадров в оригинале : 59,940 кадров/сек
    Цветовое пространство : YUV
    Субдискретизация насыщенности : 4:2:0
    Битовая глубина : 8 бит
    Тип развёртки : Прогрессивная
    Бит/(Пиксели*Кадры) : 0.153
    Размер потока : 6,39 Гбайт (93%)
    Библиотека кодирования : x264 core 130 r2273 b3065e6
    Настройки программы : cabac=1 / ref=6 / deblock=1:0:0 / analyse=0x3:0x133 / me=umh / subme=8 / psy=1 / psy_rd=1.00:0.15 / mixed_ref=1 / me_range=20 / chroma_me=1 / trellis=2 / 8x8dct=1 / cqm=0 / deadzone=21,11 / fast_pskip=0 / chroma_qp_offset=-3 / threads=6 / lookahead_threads=2 / sliced_threads=0 / nr=0 / decimate=0 / interlaced=0 / bluray_compat=0 / constrained_intra=0 / bframes=8 / b_pyramid=2 / b_adapt=2 / b_bias=0 / direct=1 / weightb=1 / open_gop=0 / weightp=2 / keyint=250 / keyint_min=25 / scenecut=40 / intra_refresh=0 / rc=crf / mbtree=0 / crf=18.0 / qcomp=0.63 / qpmin=10 / qpmax=51 / qpstep=4 / ip_ratio=1.40 / pb_ratio=1.30 / aq=1:1.20
    Default : Да
    Forced : Нет
    Аудио
    Идентификатор : 2
    Формат : AC-3
    Формат/Информация : Audio Coding 3
    Расширение режима : CM (complete main)
    Параметр Endianness формата : Big
    Идентификатор кодека : A_AC3
    Продолжительность : 2 ч. 21 м.
    Вид битрейта : Постоянный
    Битрейт : 384 Кбит/сек
    Каналы : 6 каналов
    Расположение каналов : Front: L C R, Side: L R, LFE
    Частота : 48,0 КГц
    Битовая глубина : 16 бит
    Метод сжатия : С потерями
    Размер потока : 389 Мбайт (6%)
    Default : Да
    Forced : Нет

    Скринлист

    Скриншоты:

    Release was prepared by 60 - fps



You cannot post new topics in this forum
You cannot reply to topics in this forum
You cannot edit your posts in this forum
You cannot delete your posts in this forum
You cannot vote in polls in this forum
You cannot attach files in this forum
You cannot download files in this forum