Холодное сердце 2 / Frozen II (2019) BDRip 1080p | 60 fps ВАЛЛ·И / WALL-E (2008) BDRip-AVC | 60 fps Человек-паук: Через вселенные / Spider-Man: Into the Spider-Verse (2018) BDRip 1080p | 60 fps Аладдин / Aladdin (1992) BDRip 1080p | 60 fps Тролли. Мировой тур / Trolls World Tour (2020) BDRip 1080p | 60 fps Семейка Аддамс / The Addams Family (2019) BDRip 1080p | 60 fps Вперёд / Onward (2019) BDRip 1080p | 60 fps Камуфляж и шпионаж / Spies in Disguise (2019) BDRip 1080p | 60 fps
  1. Longevity:
    6 years 3 months
    Posts:
    2414
    Gender:
    Male
    «Бойтесь своих желаний»- Информация
    Название: Коралина в стране кошмаров
    Оригинальное название: Coraline
    Год выхода: 2009
    Жанр: Драма, мелодрама, приключения, семейный
    Режиссер: Генри Селик
    Сценарий: Генри Селик, Нил Гейман
    Продюсер: Клер Дженнингс, Билл Микэник, Мэри Сэнделл
    Персонажей озвучивали:
    Дакота Фаннинг, Тери Хэтчер, Дженнифер Сoндерс, Доун Френч, Кит Дэвид, Джон Гудман, Роберт Бэйли мл., Йен МакШейн, Аанха Нил, Джордж Селик
    --Сюжет:
    Коралина, маленькая девочка, попадает в другой мир, скрытый за секретной дверцей. Этот мир — ее альтернативная жизнь, которая не перестает ее радовать, все здесь хорошо, но только до поры до времени. Однажды она понимает, что ее настоящим родителям за ее проделки угрожает смертельная опасность. Коралине придется найти выход из мира, наполненного призраками, в реальную жизнь…- Страна: США
    Продолжительность: 01:40:36

    Файл
    Кодек: MPEG4/ISO/AVC H.264
    Формат: MKV
    Качество: BDRip 1080p | 60 fps
    Видео: 1920 x 1040 (1,85:1) | 59.940 fps | 20.0 Мбит/сек
    Аудио 1: AC3 | 5.1 | 48 kHz | 384 kbps | 16 bit | Дубляж |
    Аудио 2: AC3 | 5.1 | 48 kHz | 384 kbps | 16 bit | Украинский дубляж |
    Аудио 3: DTS | 5.1 | 48 kHz | 1510 kbps | 16 bit | ENG |

    MedifInfo

    Общее
    Уникальный идентификатор : 240717341341144938573784034166191952836 (0xB518793CAF3085CC9B1133DFC8B813C4)
    Полное имя : D:\Mult\Коралина в стране кошмаров Coraline (2009) BDRip 1080p 60 fps (1).mkv
    Формат : Matroska
    Версия формата : Version 2
    Размер файла : 15,6 Гбайт
    Продолжительность : 1 ч. 40 м.
    Общий поток : 22,2 Мбит/сек
    Название фильма : Коралина в стране кошмаров https://60-fps.org/
    Дата кодирования : UTC 2020-12-07 07:16:05
    Программа кодирования : mkvmerge v5.8.0 ('No Sleep / Pillow') built on Sep 2 2012 15:37:04
    Библиотека кодирования : libebml v1.2.3 + libmatroska v1.3.0
    Attachments : Poster.png
    Видео
    Идентификатор : 1
    Формат : AVC
    Формат/Информация : Advanced Video Codec
    Профиль формата : [email protected]
    Параметр CABAC формата : Да
    Параметр ReFrames формата : 4 кадра
    Режим смешивания : Header stripping
    Идентификатор кодека : V_MPEG4/ISO/AVC
    Продолжительность : 1 ч. 40 м.
    Битрейт : 20,0 Мбит/сек
    Ширина : 1920 пикселей
    Высота : 1040 пикселей
    Соотношение сторон : 1,85:1
    Режим частоты кадров : Постоянный
    Частота кадров : 59,940 (60000/1001) кадров/сек
    Цветовое пространство : YUV
    Субдискретизация насыщенности : 4:2:0
    Битовая глубина : 8 бит
    Тип развёртки : Прогрессивная
    Бит/(Пиксели*Кадры) : 0.167
    Размер потока : 13,7 Гбайт (88%)
    Библиотека кодирования : x264 core 146 r2538 121396c
    Настройки программы : cabac=1 / ref=4 / deblock=1:-1:-1 / analyse=0x3:0x113 / me=hex / subme=8 / psy=1 / psy_rd=1.00:0.15 / mixed_ref=1 / me_range=16 / chroma_me=1 / trellis=1 / 8x8dct=1 / cqm=0 / deadzone=21,11 / fast_pskip=1 / chroma_qp_offset=-3 / threads=12 / lookahead_threads=3 / sliced_threads=0 / nr=0 / decimate=1 / interlaced=0 / bluray_compat=0 / constrained_intra=0 / bframes=3 / b_pyramid=2 / b_adapt=2 / b_bias=0 / direct=3 / weightb=1 / open_gop=0 / weightp=2 / keyint=599 / keyint_min=59 / scenecut=40 / intra_refresh=0 / rc_lookahead=40 / rc=2pass / mbtree=1 / bitrate=20000 / ratetol=1.0 / qcomp=0.60 / qpmin=0 / qpmax=69 / qpstep=4 / cplxblur=20.0 / qblur=0.5 / vbv_maxrate=50000 / vbv_bufsize=50000 / nal_hrd=none / filler=0 / ip_ratio=1.40 / aq=1:1.00
    Default : Да
    Forced : Нет
    Аудио #1
    Идентификатор : 2
    Формат : AC-3
    Формат/Информация : Audio Coding 3
    Расширение режима : CM (complete main)
    Параметр Endianness формата : Big
    Режим смешивания : Header stripping
    Идентификатор кодека : A_AC3
    Продолжительность : 1 ч. 40 м.
    Вид битрейта : Постоянный
    Битрейт : 384 Кбит/сек
    Каналы : 6 каналов
    Расположение каналов : Front: L C R, Side: L R, LFE
    Частота : 48,0 КГц
    Частота кадров : 31,250 кадров/сек (1536 spf)
    Битовая глубина : 16 бит
    Метод сжатия : С потерями
    Размер потока : 276 Мбайт (2%)
    Заголовок : AC3 5.1 384k Dubl
    Язык : Russian
    Default : Да
    Forced : Нет
    Аудио #2
    Идентификатор : 3
    Формат : AC-3
    Формат/Информация : Audio Coding 3
    Расширение режима : CM (complete main)
    Параметр Endianness формата : Big
    Режим смешивания : Header stripping
    Идентификатор кодека : A_AC3
    Продолжительность : 1 ч. 40 м.
    Вид битрейта : Постоянный
    Битрейт : 384 Кбит/сек
    Каналы : 6 каналов
    Расположение каналов : Front: L C R, Side: L R, LFE
    Частота : 48,0 КГц
    Частота кадров : 31,250 кадров/сек (1536 spf)
    Битовая глубина : 16 бит
    Метод сжатия : С потерями
    Размер потока : 276 Мбайт (2%)
    Заголовок : AC3 5.1 384k Dubl
    Язык : Ukrainian
    Default : Нет
    Forced : Нет
    Аудио #3
    Идентификатор : 4
    Формат : DTS
    Формат/Информация : Digital Theater Systems
    Режим : 16
    Параметр Endianness формата : Big
    Режим смешивания : Header stripping
    Идентификатор кодека : A_DTS
    Продолжительность : 1 ч. 40 м.
    Вид битрейта : Постоянный
    Битрейт : 1510 Кбит/сек
    Каналы : 6 каналов
    Расположение каналов : Front: L C R, Side: L R, LFE
    Частота : 48,0 КГц
    Частота кадров : 93,750 кадра/сек (512 spf)
    Битовая глубина : 24 бит
    Метод сжатия : С потерями
    Размер потока : 1,06 Гбайт (7%)
    Заголовок : DTS 5.1 @ 1.5 Mbps
    Язык : English
    Default : Нет
    Forced : Нет

    Release was prepared by 60-fps.org

  2. Longevity:
    5 years 2 months
    Posts:
    15
    Gender:
    Male
    Да
    19-Mar-2016 19:24 (after 4 hours)
  3. Longevity:
    3 years 5 months
    Posts:
    1
    Gender:
    Unknown
    Встаньте на раздачу, пожалуйста!!! Плачу
    13-Aug-2017 17:16 (after 1 year 4 months)
  4. Longevity:
    3 years 4 months
    Posts:
    4
    Gender:
    Unknown
    Раздайте,кто-нибудь,пожалуйста Улыбаюсь
    05-Sep-2017 15:33 (after 22 days)
  5. Longevity:
    5 years 2 months
    Posts:
    15
    Gender:
    Male
    Буквально пару дней назад удалил мульт Грущу
    06-Sep-2017 17:07 (after 1 day 1 hour)
  6. Longevity:
    3 years 4 months
    Posts:
    4
    Gender:
    Unknown
    Скачал,спасибо Смеюсь Солнышко
    07-Sep-2017 23:45 (after 1 day 6 hours)
  7. Longevity:
    2 years 9 months
    Posts:
    1
    Gender:
    Unknown
    что то не грузит
    05-Apr-2018 19:20 (after 6 months 27 days)
  8. Longevity:
    1 year 2 months
    Posts:
    1
    Gender:
    Unknown
    Раздайте пожалуйста *(
    27-Oct-2019 15:00 (after 1 year 6 months)
  9. Longevity:
    2 years 6 months
    Posts:
    42
    Gender:
    Male
    Пожалуйста, распространите мультфильм. Загрузка не работает
    01-Dec-2020 17:22 (after 1 year 1 month)
  10. Longevity:
    2 years 6 months
    Posts:
    42
    Gender:
    Male
    7853saglayevs, Я раздам, если еще есть желание скачать мультфильм. Улыбаюсь
    Сообщение появится после проверки модератором
    01-Dec-2020 17:24 (after 2 minutes)
  11. Longevity:
    2 years 6 months
    Posts:
    1
    Gender:
    Unknown
    7853saglayevs, Я раздам, если еще есть желание скачать мультфильм. Улыбаюсь
    давай попробуем
    06-Dec-2020 22:02 (after 5 days)
  12. Longevity:
    3 years 11 months
    Posts:
    126
    Gender:
    Male
    Смотрю много желающих??? Завтра выложу заново...
    06-Dec-2020 22:11 (after 8 minutes)
  13. Longevity:
    3 years 11 months
    Posts:
    126
    Gender:
    Male
    Раздача обновлена. Качаство увеличено с 720p до 1080p. Поток увеличен с 10 мегабит до 20.
    The distribution has been updated. The quality has been increased from 720p to 1080p. The stream has been increased from 10 megabits to 20.
    07-Dec-2020 10:35 (after 12 hours)
  14. Longevity:
    2 years 6 months
    Posts:
    42
    Gender:
    Male
    12117Раздача обновлена. Качаство увеличено с 720p до 1080p. Поток увеличен с 10 мегабит до 20.
    The distribution has been updated. The quality has been increased from 720p to 1080p. The stream has been increased from 10 megabits to 20.
    The download rate for the torrent is way too slow that would take a week to download
    08-Dec-2020 00:05 (after 13 hours)
  15. Longevity:
    3 years 11 months
    Posts:
    126
    Gender:
    Male
    12118 The download rate for the torrent is way too slow that would take a week to download
    Sorry, but you are not the only one who downloads ...
    08-Dec-2020 00:27 (after 22 minutes)


You cannot post new topics in this forum
You cannot reply to topics in this forum
You cannot edit your posts in this forum
You cannot delete your posts in this forum
You cannot vote in polls in this forum
You cannot attach files in this forum
You cannot download files in this forum