[Цитировать]
mimok

Контрабанда / Contraband (2011) BDRip 720p | 48fps«Большой куш. Крутая команда. Смертельный риск»- Информация о фильме
Название: Контрабанда
Оригинальное название: Contraband
Год выхода: 2011
Жанр: Боевик, триллер, драма, криминал
Режиссер: Бальтасар Кормакур
Продюсер: Тим Беван, Эрик Феллнер, Бальтасар Кормакур
В ролях: Марк Уолберг, Кейт Бекинсейл, Бен Фостер, Калеб Лэндри Джонс, Джованни Рибизи, Дж.К. Симмонс, Лукас Хаас, Лаки Джонсон, Диего Луна, Роберт Уолберг
Описание фильма:
Мир контрабандистов — это большие ставки и огромный риск. Cтоит оступиться лишь раз, и тебя ждет смерть. В этом мире Крис был лучшим, его называли Гудини, но он вышел из игры, женился и начал новую жизнь…
Страна: США, Великобритания, Франция
Студия: Relativity Media, Universal Pictures, Studio Canal
Продолжительность: 01:49:38
Перевод: Дублированный (Лицензия)
Субтитры: Вшитые, отключаемые
Язык субтитров: Русский (Full), Английский (Full)

Дата мировой премьеры: 12 января 2012
Дата российской премьеры: 12 января 2012, «UPI»
Дата выхода DVD/Blu-Ray релиза: 31 мая 2012, «Двадцатый Век Фокс СНГ»
Файл
Формат: MKV
Кодек: MPEG-4 AVC/H.264
Качество: BDRip 720p
Видео: ~ 7262 Кбит/сек, 1280 x 552, 47.952 кадров/сек
Аудио: DTS 5.1, 48.0 KHz, 768 Кбит/сек - Русский

MediaInfo

Общее
Уникальный идентификатор : 238239721463999757978242269428714978231 (0xB33B4D2556CE03D6BF731C9EF0A63BB7)
Полное имя : D:\Торренты\Contraband 48fps.mkv
Формат : Matroska
Версия формата : Version 2
Размер файла : 6,27 Гбайт
Продолжительность : 1 ч. 49 м.
Общий поток : 8193 Кбит/сек
Название фильма : Contraband (2012) Blu-ray Disc [EUR]
Дата кодирования : UTC 2015-09-20 17:22:42
Программа кодирования : mkvmerge v6.9.1 ('Blue Panther') 64bit built on Apr 18 2014 18:23:38
Библиотека кодирования : libebml v1.3.0 + libmatroska v1.4.1
Видео
Идентификатор : 1
Формат : AVC
Формат/Информация : Advanced Video Codec
Профиль формата : High@L4.1
Параметр CABAC формата : Да
Параметр ReFrames формата : 6 кадров
Идентификатор кодека : V_MPEG4/ISO/AVC
Продолжительность : 1 ч. 49 м.
Битрейт : 7262 Кбит/сек
Ширина : 1280 пикселей
Высота : 552 пикселя
Соотношение сторон : 2,35:1
Режим частоты кадров : Постоянный
Частота кадров : 47,952 кадров/сек
Цветовое пространство : YUV
Субдискретизация насыщенности : 4:2:0
Битовая глубина : 8 бит
Тип развёртки : Прогрессивная
Бит/(Пиксели*Кадры) : 0.214
Размер потока : 5,56 Гбайт (89%)
Заголовок : Release by mimok
Библиотека кодирования : x264 core 130 r2273 b3065e6
Настройки программы : cabac=1 / ref=6 / deblock=1:0:0 / analyse=0x3:0x133 / me=umh / subme=8 / psy=1 / psy_rd=1.00:0.15 / mixed_ref=1 / me_range=20 / chroma_me=1 / trellis=2 / 8x8dct=1 / cqm=0 / deadzone=21,11 / fast_pskip=0 / chroma_qp_offset=-3 / threads=6 / lookahead_threads=2 / sliced_threads=0 / nr=0 / decimate=0 / interlaced=0 / bluray_compat=0 / constrained_intra=0 / bframes=8 / b_pyramid=2 / b_adapt=2 / b_bias=0 / direct=1 / weightb=1 / open_gop=0 / weightp=2 / keyint=250 / keyint_min=25 / scenecut=40 / intra_refresh=0 / rc=crf / mbtree=0 / crf=18.0 / qcomp=0.63 / qpmin=10 / qpmax=51 / qpstep=4 / ip_ratio=1.40 / pb_ratio=1.30 / aq=1:1.20
Default : Да
Forced : Нет
Аудио
Идентификатор : 2
Формат : DTS
Формат/Информация : Digital Theater Systems
Режим : 16
Параметр Endianness формата : Big
Идентификатор кодека : A_DTS
Продолжительность : 1 ч. 49 м.
Вид битрейта : Постоянный
Битрейт : 768 Кбит/сек
Каналы : 6 каналов
Расположение каналов : Front: L C R, Side: L R, LFE
Частота : 48,0 КГц
Битовая глубина : 24 бит
Метод сжатия : С потерями
Размер потока : 602 Мбайт (9%)
Язык : Russian
Default : Да
Forced : Нет
Текст #1
Идентификатор : 3
Формат : UTF-8
Идентификатор кодека : S_TEXT/UTF8
Идентификатор кодека/Информация : UTF-8 Plain Text
Заголовок : full
Язык : Russian
Default : Да
Forced : Нет
Текст #2
Идентификатор : 4
Формат : UTF-8
Идентификатор кодека : S_TEXT/UTF8
Идентификатор кодека/Информация : UTF-8 Plain Text
Заголовок : full
Язык : English
Default : Нет
Forced : Нет

Скринлист

Скриншоты:

Релиз подготовлен 60 - fps

[Цитировать]
djon3volta

Газку бы прибавить.. Подмигиваю
 
Показать сообщения:    

Текущее время: 05-Дек 01:23

Часовой пояс: UTC + 3


Вы не можете начинать темы
Вы не можете отвечать на сообщения
Вы не можете редактировать свои сообщения
Вы не можете удалять свои сообщения
Вы не можете голосовать в опросах
Вы не можете прикреплять файлы к сообщениям
Вы не можете скачивать файлы