«Get ready for human's biggest discovery ever!»- Информация
Название: Контакт
Оригинальное название: Contact
Год выхода: 1997
Жанр: Фантастика, Драма, Триллер
Режиссер: Роберт Земекис
Сценарий: Карл Саган, Джеймс В. Харт, Майкл Голденберг
Продюсер: Стив Старки, Роберт Земекис, Стивен Дж. Бойд
В ролях: Джоди Фостер, Мэттью МакКонахи, Том Скеррит, Джеймс Вудс, Анджела Бассетт, Уильям Фихтнер, Джон Хёрт, Дэвид Морс, Джена Мэлоун, Джейк Бьюзи
--Сюжет:
Радиоастроном доктор Элли Эрроуэй мечтала о звездах с детских лет, когда вместе с отцом занималась радиолюбительством и выходила на связь в эфир. Она рано потеряла родителей и думала, что они где-то далеко, в пространстве…- Страна: США
Продолжительность: 02:29:41

Файл
Кодек: MPEG4/ISO/AVC H.264
Формат: MKV
Качество: BDRip 1080p | 60 fps
Видео: 1920x800 | 59.940 fps | ~16.0 Мбит/сек
Аудио 1: AC3 | 5.1 | 48 kHz | 640 kbps | 16 bit | Дубляж |
Аудио 2: AC3 | 5.1 | 48 kHz | 640 kbps | 16 bit | ENG |
Субтитры: Rus (полные), Eng (полные)

MedifInfo

Видео
Идентификатор : 1
Формат : AVC
Формат/Информация : Advanced Video Codec
Профиль формата : High@L4.1
Параметр CABAC формата : Да
Параметр ReFrames формата : 5 кадров
Идентификатор кодека : V_MPEG4/ISO/AVC
Продолжительность : 2 ч. 29 м.
Битрейт : 16,0 Мбит/сек
Ширина : 1920 пикселей
Высота : 800 пикселей
Соотношение сторон : 2,40:1
Режим частоты кадров : Постоянный
Частота кадров : 59,880 кадров/сек
Частота кадров в оригинале : 59,940 кадров/сек
Цветовое пространство : YUV
Субдискретизация насыщенности : 4:2:0
Битовая глубина : 8 бит
Тип развёртки : Прогрессивная
Бит/(Пиксели*Кадры) : 0.174
Размер потока : 16,4 Гбайт (91%)
Библиотека кодирования : x264 core 130 r2273 b3065e6
Настройки программы : cabac=1 / ref=5 / deblock=1:-1:-1 / analyse=0x3:0 / me=umh / subme=9 / psy=1 / psy_rd=1.00:0.10 / mixed_ref=1 / me_range=24 / chroma_me=0 / trellis=1 / 8x8dct=1 / cqm=0 / deadzone=21,11 / fast_pskip=0 / chroma_qp_offset=-3 / threads=6 / lookahead_threads=1 / sliced_threads=0 / nr=0 / decimate=0 / interlaced=0 / bluray_compat=0 / constrained_intra=0 / bframes=5 / b_pyramid=2 / b_adapt=2 / b_bias=0 / direct=3 / weightb=1 / open_gop=0 / weightp=2 / keyint=250 / keyint_min=25 / scenecut=40 / intra_refresh=0 / rc=2pass / mbtree=0 / bitrate=16000 / ratetol=1.0 / qcomp=0.60 / qpmin=0 / qpmax=69 / qpstep=4 / cplxblur=20.0 / qblur=0.5 / ip_ratio=1.40 / pb_ratio=1.30 / aq=1:0.90
Язык : English
Default : Да
Forced : Нет
Аудио #1
Идентификатор : 2
Формат : AC-3
Формат/Информация : Audio Coding 3
Расширение режима : CM (complete main)
Параметр Endianness формата : Big
Идентификатор кодека : A_AC3
Продолжительность : 2 ч. 29 м.
Вид битрейта : Постоянный
Битрейт : 640 Кбит/сек
Каналы : 6 каналов
Расположение каналов : Front: L C R, Side: L R, LFE
Частота : 48,0 КГц
Битовая глубина : 16 бит
Метод сжатия : С потерями
Размер потока : 685 Мбайт (4%)
Заголовок : Dub
Язык : Russian
Default : Да
Forced : Нет
Аудио #2
Идентификатор : 3
Формат : AC-3
Формат/Информация : Audio Coding 3
Расширение режима : CM (complete main)
Параметр Endianness формата : Big
Идентификатор кодека : A_AC3
Продолжительность : 2 ч. 29 м.
Вид битрейта : Постоянный
Битрейт : 640 Кбит/сек
Каналы : 6 каналов
Расположение каналов : Front: L C R, Side: L R, LFE
Частота : 48,0 КГц
Битовая глубина : 16 бит
Метод сжатия : С потерями
Размер потока : 685 Мбайт (4%)
Заголовок : Original
Язык : English
Default : Нет
Forced : Нет
Текст #1
Идентификатор : 4
Формат : UTF-8
Идентификатор кодека : S_TEXT/UTF8
Идентификатор кодека/Информация : UTF-8 Plain Text
Заголовок : Full
Язык : Russian
Default : Нет
Forced : Нет
Текст #2
Идентификатор : 5
Формат : UTF-8
Идентификатор кодека : S_TEXT/UTF8
Идентификатор кодека/Информация : UTF-8 Plain Text
Заголовок : Full
Язык : English
Default : Нет
Forced : Нет
Меню
00:00:00.000 : :Chapter 01
00:01:31.216 : :Chapter 02
00:02:19.681 : :Chapter 03
00:04:03.701 : :Chapter 04
00:05:56.272 : :Chapter 05
00:06:19.045 : :Chapter 06
00:09:48.337 : :Chapter 07
00:11:10.044 : :Chapter 08
00:15:30.512 : :Chapter 09
00:18:54.299 : :Chapter 10
00:21:22.698 : :Chapter 11
00:23:58.478 : :Chapter 12
00:34:00.079 : :Chapter 13
00:37:23.115 : :Chapter 14
00:39:46.008 : :Chapter 15
00:42:03.729 : :Chapter 16
00:45:39.820 : :Chapter 17
00:48:58.977 : :Chapter 18
00:51:33.882 : :Chapter 19
00:54:03.448 : :Chapter 20
01:01:04.369 : :Chapter 21
01:02:46.095 : :Chapter 22
01:05:13.701 : :Chapter 23
01:07:44.226 : :Chapter 24
01:09:55.024 : :Chapter 25
01:13:06.799 : :Chapter 26
01:18:29.329 : :Chapter 27
01:24:12.922 : :Chapter 28
01:26:14.085 : :Chapter 29
01:28:59.834 : :Chapter 30
01:31:54.592 : :Chapter 31
01:35:40.401 : :Chapter 32
01:40:39.074 : :Chapter 33
01:44:39.022 : :Chapter 34
01:49:20.804 : :Chapter 35
01:51:40.610 : :Chapter 36
01:55:10.570 : :Chapter 37
01:58:09.373 : :Chapter 38
01:59:53.853 : :Chapter 39
02:03:25.815 : :Chapter 40
02:06:17.194 : :Chapter 41
02:08:28.617 : :Chapter 42
02:09:16.540 : :Chapter 43
02:19:52.300 : :Chapter 44

[Цитировать]
mchael

Спасибо за релиз!
Фильм отличный!
Cамая достоверная фантастика - так говорят астрономы-ученые. Удивляюсь

[Цитировать]
mchael

Чуть не забыл, и дубляж самый удачный!!!
 
Показать сообщения:    

Текущее время: 24-Май 09:04

Часовой пояс: UTC + 3


Вы не можете начинать темы
Вы не можете отвечать на сообщения
Вы не можете редактировать свои сообщения
Вы не можете удалять свои сообщения
Вы не можете голосовать в опросах
Вы не можете прикреплять файлы к сообщениям
Вы не можете скачивать файлы