[Цитировать]
mimok

Константин: Повелитель тьмы / Constantine (2005) BDRip 720p | 60fps«Ад и Рай держат пари на Земле»- Год выпуска: 2005
Производство: США, Германия / Warner Bros. Pictures, Village Roadshow Pictures
Жанр: Ужасы, фэнтези, драма-Режиссер: Френсис Лоуренс
Продюсер: Лоренцо Ди Бонавентура, Акива Голдсман, Бенджамин Мельникер
Актеры: Киану Ривз, Рэйчел Вайз, Шайа ЛаБаф, Джимон Хунсу, Макс Бейкер, Прюитт Тейлор Винс, Гэвин Россдэйл, Тильда Суинтон, Петер Стормаре, Джесси Рамирез, Хосе Суньига...-Описание фильма:
Джону Константину удалось не только побывать в аду, но и вернуться обратно. Родившись с неугодным самому себе талантом — способностью распознавать помесь ангелов и демонов, которые бродят по земле в облике людей, — Константин под давлением обстоятельств пытается совершить самоубийство, лишь бы избавиться от мучительных видений. Но неудачно. Воскрешенный против собственной воли он снова оказывается в мире живых. Теперь, отмеченный печатью суицида и получивший временное право на жизнь, он патрулирует границу, разделяющую рай и ад, тщетно надеясь на обретение спасения путем сражения с земными ставленниками зла.-Перевод: Дублированный (Лицензия)
Субтитры: Вшитые, отключаемые
Язык субтитров: Русский (Full)- -Дата мировой премьеры: 8 февраля 2005
Дата российской премьеры: 24 марта 2005, «Каро-Премьер»
Дата выхода DVD релиза: 3 февраля 2009, «Юниверсал Пикчерс Рус»
Дата выхода Blu-Ray релиза: 15 июня 2009, «Юниверсал Пикчерс Рус»-Продолжительность: 02:00:47
Качество видео: BDRip 720p-Видеокодек: MPEG-4 AVC/H.264
Битрейт видео: ~ 7489 Кбит/сек
Размер кадра: 1280 x 536
Аудио#1: AC3 5.1, 48.0 KHz, 640 Kbps - Русский (Blu-ray CEE)
Аудио#2: AC3 5.1, 48.0 KHz, 384 Kbps - Русский (Одноголосый закадровый, Е. Гаевский)-

MediaInfo

Общее
Уникальный идентификатор : 205208931510373611876079443330898248654 (0x9A61CD7788072599AFFACDB58506C3CE)
Полное имя : D:\Торренты\Constantine 60fps.mkv
Формат : Matroska
Версия формата : Version 2
Размер файла : 7,33 Гбайт
Продолжительность : 2 ч. 0 м.
Общий поток : 8685 Кбит/сек
Название фильма : Constantine (2005) BDRemux 1080p
Дата кодирования : UTC 2014-11-04 15:32:03
Программа кодирования : mkvmerge v6.9.1 ('Blue Panther') 64bit built on Apr 18 2014 18:23:38
Библиотека кодирования : libebml v1.3.0 + libmatroska v1.4.1
Видео
Идентификатор : 1
Формат : AVC
Формат/Информация : Advanced Video Codec
Профиль формата : High@L4.1
Параметр CABAC формата : Да
Параметр ReFrames формата : 6 кадров
Идентификатор кодека : V_MPEG4/ISO/AVC
Продолжительность : 2 ч. 0 м.
Битрейт : 7489 Кбит/сек
Ширина : 1280 пикселей
Высота : 536 пикселей
Соотношение сторон : 2,40:1
Режим частоты кадров : Постоянный
Частота кадров : 59,880 кадров/сек
Частота кадров в оригинале : 59,940 кадров/сек
Цветовое пространство : YUV
Субдискретизация насыщенности : 4:2:0
Битовая глубина : 8 бит
Тип развёртки : Прогрессивная
Бит/(Пиксели*Кадры) : 0.182
Размер потока : 6,32 Гбайт (86%)
Заголовок : Release by mimok
Библиотека кодирования : x264 core 125 r2208 d9d2288
Настройки программы : cabac=1 / ref=6 / deblock=0:0:0 / analyse=0x3:0x133 / me=umh / subme=8 / psy=1 / psy_rd=1.00:0.15 / mixed_ref=1 / me_range=20 / chroma_me=1 / trellis=2 / 8x8dct=1 / cqm=0 / deadzone=21,11 / fast_pskip=0 / chroma_qp_offset=-3 / threads=6 / lookahead_threads=1 / sliced_threads=0 / nr=0 / decimate=0 / interlaced=0 / bluray_compat=0 / constrained_intra=0 / bframes=8 / b_pyramid=2 / b_adapt=2 / b_bias=0 / direct=1 / weightb=1 / open_gop=0 / weightp=2 / keyint=600 / keyint_min=59 / scenecut=40 / intra_refresh=0 / rc=crf / mbtree=0 / crf=17.0 / qcomp=0.63 / qpmin=10 / qpmax=51 / qpstep=4 / ip_ratio=1.40 / pb_ratio=1.30 / aq=1:1.20
Default : Да
Forced : Нет
Аудио #1
Идентификатор : 2
Формат : AC-3
Формат/Информация : Audio Coding 3
Расширение режима : CM (complete main)
Параметр Endianness формата : Big
Идентификатор кодека : A_AC3
Продолжительность : 2 ч. 0 м.
Вид битрейта : Постоянный
Битрейт : 640 Кбит/сек
Каналы : 6 каналов
Расположение каналов : Front: L C R, Side: L R, LFE
Частота : 48,0 КГц
Битовая глубина : 16 бит
Метод сжатия : С потерями
Размер потока : 553 Мбайт (7%)
Заголовок : Дубляж, Blu-ray CEE
Язык : Russian
Default : Да
Forced : Нет
Аудио #2
Идентификатор : 3
Формат : AC-3
Формат/Информация : Audio Coding 3
Расширение режима : CM (complete main)
Параметр Endianness формата : Big
Идентификатор кодека : A_AC3
Продолжительность : 2 ч. 0 м.
Вид битрейта : Постоянный
Битрейт : 384 Кбит/сек
Каналы : 6 каналов
Расположение каналов : Front: L C R, Side: L R, LFE
Частота : 48,0 КГц
Битовая глубина : 16 бит
Метод сжатия : С потерями
Размер потока : 332 Мбайт (4%)
Заголовок : Одноголосый закадровый, Е. Гаевский
Язык : Russian
Default : Нет
Forced : Нет
Текст
Идентификатор : 4
Формат : UTF-8
Идентификатор кодека : S_TEXT/UTF8
Идентификатор кодека/Информация : UTF-8 Plain Text
Заголовок : Full
Язык : Russian
Default : Да
Forced : Нет

Знаете ли вы, что...

* Фильм основан на серии комиксов «Hellblazer» 1988 года. Впервые Джон Константин появился в комиксе Алана Мура Swamp Thing.
* В комиксе главный действующий герой Джон Константин был родом из Ливерпуля, а в кинофильме он стал уроженцем Калифорнии. Во многом такое решение было обусловлено выбором актера, исполняющего главную роль. Киану Ривз типичный американец и правдоподобно сыграть британца у него навряд ли бы получилось.
* Несмотря на то, что картина «Константин» была основана на сюжете комикса «Hellblazer» (Посланник ада), было принято решение назвать картину иначе, чтобы не получилось путаницы с другим похожим названием «Hellraiser» («Восставший из ада»).
* По первоначальному замыслу продюсерского штаба съемки картины планировалось поручить Тарсему Сингху, а в главной роли должен был быть задействован Николас Кейдж. Однако режиссер с самого начала был против кандидатуры Николаса и в конечном итоге покинул проект. Через некоторое время его примеру последовал и Николас Кейдж.
* Прототипом Джона Константина по заверениям Клайва Баркера стал популярный певец Стинг.
* На роль Бальтазара предполагалось взять Петера Стормаре.
* Когда в начале фильма одержимая демоном девочка ползает по потолку, она выкрикивает «Papatayin natin sila!», что на одном из филиппинских наречий означает «Мы убьем их всех!».
* Татуировка на руках Константина — алхимический символ Красного Короля, защищающий того, кто его носит.
* Чтобы вжиться в роль, Рэйчел Вайс посещала морг.
* Для съемок картины была сделана точная копия в натуральную величину актрисы Рэйчел Вайс для сцены, где был показан труп Изабель Додсон.
* Нацистский флаг, в который было по фильму завернуто Копье судьбы, после сьемок был уничтожен.

Скринлист

Скриншоты:
Время раздачи: По мере возможности

[Цитировать]
Kryl

Что за перелив ?

[Цитировать]
mimok

да у меня проблемки с торрент клиентом
 
Показать сообщения:    

Текущее время: 09-Дек 22:20

Часовой пояс: UTC + 3


Вы не можете начинать темы
Вы не можете отвечать на сообщения
Вы не можете редактировать свои сообщения
Вы не можете удалять свои сообщения
Вы не можете голосовать в опросах
Вы не можете прикреплять файлы к сообщениям
Вы не можете скачивать файлы