[Цитировать]
Kryl

«Пробуждение Кинг-Конга»- Информация
Название: Конг: Остров черепа
Оригинальное название: Kong: Skull Island
Год выхода: 2017
Жанр: Фантастика, фэнтези, боевик, приключения
Режиссер: Джордан Вот-Робертс
Сценарий: Дэн Гилрой, Макс Боренштейн, Дерек Коннолли
Продюсер: Дэбби Босси, Edward Cheng, Jennifer Conroy
В ролях: Том Хиддлстон, Сэмюэл Л. Джексон, Джон Гудмен, Бри Ларсон, Тянь Цзин, Тоби Кеббелл, Джон Ортис, Кори Хоукинс, Джейсон Митчелл, Ши Уигхэм
--Сюжет:
На неизвестный остров в Тихом океане попадает команда ученых, военных и искателей приключений. Они вторгаются во владения могучего Конга и тем самым развязывают сражение между человеком и природой. Очень скоро исследовательская миссия превращается в игру на выживание, ее участники вынуждены буквально прорубать себе путь к спасению.
- Страна: США
Продолжительность: 01:58:23

Файл
Кодек: MPEG4/ISO/AVC/H.264
Формат: MKV
Качество: BDRip 720p | 60 fps
Видео: 1280 x 532 (2.406) | 59.940 fps | 10.0 Мбит/сек
Аудио 1: AC3 | 5.1 | 48 kHz | 448 kbps | 16 bit | Дубляж |
Аудио 2: AC3 | 5.1 | 48 kHz | 448 kbps | 16 bit | Eng |
Субтитры: Русские (full, forced), английские

MedifInfo

Видео
Идентификатор : 1
Формат : AVC
Формат/Информация : Advanced Video Codec
Профиль формата : High@L4.1
Параметр CABAC формата : Да
Параметр ReFrames формата : 3 кадра
Идентификатор кодека : V_MPEG4/ISO/AVC
Продолжительность : 1 ч. 58 м.
Вид битрейта : Переменный
Битрейт : 9726 Кбит/сек
Максимальный битрейт : 10000 Кбит/сек
Ширина : 1280 пикселей
Высота : 532 пикселя
Соотношение сторон : 2,40:1
Режим частоты кадров : Постоянный
Частота кадров : 59,880 кадров/сек
Частота кадров в оригинале : 59,940 кадров/сек
Стандарт вещания : PAL
Цветовое пространство : YUV
Субдискретизация насыщенности : 4:2:0
Битовая глубина : 8 бит
Тип развёртки : Прогрессивная
Бит/(Пиксели*Кадры) : 0.239
Размер потока : 8,04 Гбайт (90%)
Заголовок : www.60-fps.org
Язык : English
Default : Да
Forced : Нет
Основные цвета : BT.601 NTSC
Характеристики трансфера : BT.601
Коэффициенты матрицы : BT.601
colour_range : Limited
Аудио #1
Идентификатор : 2
Формат : AC-3
Формат/Информация : Audio Coding 3
Расширение режима : CM (complete main)
Параметр Endianness формата : Big
Идентификатор кодека : A_AC3
Продолжительность : 1 ч. 58 м.
Вид битрейта : Постоянный
Битрейт : 448 Кбит/сек
Каналы : 6 каналов
Расположение каналов : Front: L C R, Side: L R, LFE
Частота : 48,0 КГц
Битовая глубина : 16 бит
Метод сжатия : С потерями
Размер потока : 379 Мбайт (4%)
Заголовок : Дубляж
Язык : Russian
Default : Да
Forced : Нет
Аудио #2
Идентификатор : 3
Формат : AC-3
Формат/Информация : Audio Coding 3
Расширение режима : CM (complete main)
Параметр Endianness формата : Big
Идентификатор кодека : A_AC3
Продолжительность : 1 ч. 58 м.
Вид битрейта : Постоянный
Битрейт : 448 Кбит/сек
Каналы : 6 каналов
Расположение каналов : Front: L C R, Side: L R, LFE
Частота : 48,0 КГц
Битовая глубина : 16 бит
Метод сжатия : С потерями
Размер потока : 379 Мбайт (4%)
Заголовок : english
Язык : English
Default : Нет
Forced : Нет
Текст #1
Идентификатор : 4
Формат : UTF-8
Идентификатор кодека : S_TEXT/UTF8
Идентификатор кодека/Информация : UTF-8 Plain Text
Язык : Russian
Default : Да
Forced : Нет
Текст #2
Идентификатор : 5
Формат : UTF-8
Идентификатор кодека : S_TEXT/UTF8
Идентификатор кодека/Информация : UTF-8 Plain Text
Язык : Russian
Default : Нет
Forced : Нет
Текст #3
Идентификатор : 6
Формат : UTF-8
Идентификатор кодека : S_TEXT/UTF8
Идентификатор кодека/Информация : UTF-8 Plain Text
Язык : English
Default : Нет
Forced : Нет
Меню
00:00:00.000 : en:00:00:00.000
00:08:54.743 : en:00:08:54.743
00:19:51.774 : en:00:19:51.774
00:30:01.133 : en:00:30:01.133
00:40:00.106 : en:00:40:00.106
00:50:13.260 : en:00:50:13.260
01:00:49.729 : en:01:00:49.729
01:10:29.600 : en:01:10:29.600
01:18:05.890 : en:01:18:05.890
01:30:12.657 : en:01:30:12.657
01:39:09.026 : en:01:39:09.026
01:47:05.836 : en:01:47:05.836

Релиз подготовлен 60 - fps

[Цитировать]
bytrim

А фильм да действительно хорош! Порадовал. Советую всем посмотреть, особенно еще и в 60fps!!!

[Цитировать]
Cynep

Эта тема не видна в каталоге "Зарубежные фильмы 60 FPS"

[Цитировать]
Kryl

что за каталог ?

[Цитировать]
Надія Лящук

фильм хорош Улыбаюсь

[Цитировать]
kokaka

что за каталог ?
он про раздел имел ввиду, но и так понятно, однако у меня этот фильм там и там светится есть....... кстати призрак в доспехах и чужой давно качают уже в 60fps можно и добавить уже в этот раздел для удобства.
 
Показать сообщения:    

Текущее время: 21-Сен 15:29

Часовой пояс: UTC + 3


Вы не можете начинать темы
Вы не можете отвечать на сообщения
Вы не можете редактировать свои сообщения
Вы не можете удалять свои сообщения
Вы не можете голосовать в опросах
Вы не можете прикреплять файлы к сообщениям
Вы не можете скачивать файлы