VIP

Новые мутанты / The New Mutants (2020) BDRip 1080p | 60 fps Доктор Стрэндж / Doctor Strange (2016) BDRip 1080p | 60 fps Закат цивилизации / Extinction (2018) BDRip 1080p | 60 fps Грань будущего / Edge of Tomorrow (2014) BDRip 1080p | 60 fps Проект Power / Project Power (2020) WEBRip 1080p | 60 fps Интерстеллар / Interstellar (2014) BDRip 1080p | IMAX Edition | 60fps Стрелок / Shooter (2007) BDRip 1080p | 60 fps Трансформеры: Антология / Transformers: Antology (2007-2014) BDRip 1080p | 60 fps
  1. Longevity:
    6 years 7 months
    Posts:
    2414
    Gender:
    Male
    «Пробуждение Кинг-Конга»- Информация
    Название: Конг: Остров черепа
    Оригинальное название: Kong: Skull Island
    Год выхода: 2017
    Жанр: Фантастика, фэнтези, боевик, приключения
    Режиссер: Джордан Вот-Робертс
    Сценарий: Дэн Гилрой, Макс Боренштейн, Дерек Коннолли
    Продюсер: Дэбби Босси, Edward Cheng, Jennifer Conroy
    В ролях: Том Хиддлстон, Сэмюэл Л. Джексон, Джон Гудмен, Бри Ларсон, Тянь Цзин, Тоби Кеббелл, Джон Ортис, Кори Хоукинс, Джейсон Митчелл, Ши Уигхэм
    --Сюжет:
    Успешно остановив войну во Вьетнаме, пентагоновские ястребы продолжают нагнетать демократию в самых отдаленных и малоизученных закоулках планеты. На этот раз их целью становится только что обнаруженный со спутника остров в Тихом океане, куда немедленно отправляется этнографическая экспедиция в поисках нефти и других полезных для нужд свободного мира ископаемых. На всякий случай ученых и других искателей неприятностей сопровождает внушительный армейский контингент во главе с подполковником Паккардом, имеющем обширный опыт в миротворческих операциях. Между тем, на острове обнаруживается диковинная экосистема, девственно нетронутая еще до времен эпохи исторического материализма. И когда заблудившиеся исследователи случайно роняют с боевых вертолетов несколько емкостей гуманитарного груза прямо на банановые заросли, местная фауна в лице царь-гориллы и прочих гигантских вывертов эволюции вероломно начинает геноцид мирных ученых и примкнувших к ним военных
    - Страна: США
    Продолжительность: 01:58:23

    Файл
    Кодек: MPEG4/ISO/AVC/H.264
    Формат: MKV
    Качество: BDRip 1080p | 60 fps
    Видео: 1920 x 800 (2.400) | 59.940 fps | 20.0 Мбит/сек
    Аудио 1: AC3 | 5.1 | 48 kHz | 448 kbps | 16 bit | Дубляж |
    Аудио 2: AC3 | 5.1 | 48 kHz | 448 kbps | 16 bit | Eng |
    Субтитры: Русские (full, forced), английские

    MedifInfo

    Видео
    Идентификатор : 1
    Формат : AVC
    Формат/Информация : Advanced Video Codec
    Профиль формата : [email protected]
    Параметр CABAC формата : Да
    Параметр ReFrames формата : 5 кадров
    Идентификатор кодека : V_MPEG4/ISO/AVC
    Продолжительность : 1 ч. 58 м.
    Битрейт : 20,0 Мбит/сек
    Ширина : 1920 пикселей
    Высота : 800 пикселей
    Соотношение сторон : 2,40:1
    Режим частоты кадров : Постоянный
    Частота кадров : 59,880 кадров/сек
    Частота кадров в оригинале : 59,940 кадров/сек
    Цветовое пространство : YUV
    Субдискретизация насыщенности : 4:2:0
    Битовая глубина : 8 бит
    Тип развёртки : Прогрессивная
    Бит/(Пиксели*Кадры) : 0.217
    Размер потока : 16,2 Гбайт (94%)
    Заголовок : www.60-fps.org
    Библиотека кодирования : x264 core 148 r2744 b97ae06
    Настройки программы : cabac=1 / ref=5 / deblock=1:-3:-3 / analyse=0x3:0x113 / me=umh / subme=8 / psy=1 / psy_rd=1.00:0.25 / mixed_ref=1 / me_range=32 / chroma_me=1 / trellis=1 / 8x8dct=1 / cqm=0 / deadzone=6,6 / fast_pskip=1 / chroma_qp_offset=-4 / threads=12 / lookahead_threads=2 / sliced_threads=0 / nr=0 / decimate=0 / interlaced=0 / bluray_compat=0 / constrained_intra=0 / bframes=3 / b_pyramid=2 / b_adapt=1 / b_bias=0 / direct=3 / weightb=1 / open_gop=0 / weightp=2 / keyint=599 / keyint_min=59 / scenecut=40 / intra_refresh=0 / rc_lookahead=50 / rc=2pass / mbtree=1 / bitrate=19999 / ratetol=1.0 / qcomp=0.80 / qpmin=0 / qpmax=69 / qpstep=4 / cplxblur=20.0 / qblur=0.5 / vbv_maxrate=62500 / vbv_bufsize=78125 / nal_hrd=none / filler=0 / ip_ratio=1.10 / aq=1:0.50
    Default : Да
    Forced : Нет
    Аудио #1
    Идентификатор : 2
    Формат : AC-3
    Формат/Информация : Audio Coding 3
    Расширение режима : CM (complete main)
    Параметр Endianness формата : Big
    Идентификатор кодека : A_AC3
    Продолжительность : 1 ч. 58 м.
    Вид битрейта : Постоянный
    Битрейт : 448 Кбит/сек
    Каналы : 6 каналов
    Расположение каналов : Front: L C R, Side: L R, LFE
    Частота : 48,0 КГц
    Битовая глубина : 16 бит
    Метод сжатия : С потерями
    Размер потока : 379 Мбайт (2%)
    Заголовок : Дубляж
    Язык : Russian
    Default : Да
    Forced : Нет
    Аудио #2
    Идентификатор : 3
    Формат : AC-3
    Формат/Информация : Audio Coding 3
    Расширение режима : CM (complete main)
    Параметр Endianness формата : Big
    Идентификатор кодека : A_AC3
    Продолжительность : 1 ч. 58 м.
    Вид битрейта : Постоянный
    Битрейт : 448 Кбит/сек
    Каналы : 6 каналов
    Расположение каналов : Front: L C R, Side: L R, LFE
    Частота : 48,0 КГц
    Битовая глубина : 16 бит
    Метод сжатия : С потерями
    Размер потока : 379 Мбайт (2%)
    Заголовок : english
    Язык : English
    Default : Нет
    Forced : Нет
    Текст #1
    Идентификатор : 4
    Формат : UTF-8
    Идентификатор кодека : S_TEXT/UTF8
    Идентификатор кодека/Информация : UTF-8 Plain Text
    Язык : Russian
    Default : Да
    Forced : Нет
    Текст #2
    Идентификатор : 5
    Формат : UTF-8
    Идентификатор кодека : S_TEXT/UTF8
    Идентификатор кодека/Информация : UTF-8 Plain Text
    Язык : Russian
    Default : Нет
    Forced : Нет
    Текст #3
    Идентификатор : 6
    Формат : UTF-8
    Идентификатор кодека : S_TEXT/UTF8
    Идентификатор кодека/Информация : UTF-8 Plain Text
    Язык : English
    Default : Нет
    Forced : Нет
    Меню
    00:00:00.000 : en:00:00:00.000
    00:08:54.743 : en:00:08:54.743
    00:19:51.774 : en:00:19:51.774
    00:30:01.133 : en:00:30:01.133
    00:40:00.106 : en:00:40:00.106
    00:50:13.260 : en:00:50:13.260
    01:00:49.729 : en:01:00:49.729
    01:10:29.600 : en:01:10:29.600
    01:18:05.890 : en:01:18:05.890
    01:30:12.657 : en:01:30:12.657
    01:39:09.026 : en:01:39:09.026
    01:47:05.836 : en:01:47:05.836

    Release was prepared by 60-fps.org



    Last edited by Kryl on 2017-06-26 09:42; edited 1 time in total
  2. Longevity:
    4 years 8 months
    Posts:
    1586
    Gender:
    Male
    Ооооо ееееее Обезьяна
    25-Jun-2017 21:02 (after 2 minutes)
  3. Longevity:
    6 years 5 months
    Posts:
    50
    Gender:
    Male
    Спасибо! За фильм и за скорость. https://60-fps.org/topic-kong_ostrov_cherepa_kong_s...fps-t=2724.html#
    26-Jun-2017 21:36 (after 1 day)
  4. Longevity:
    4 years 8 months
    Posts:
    1586
    Gender:
    Male

    постеры похоже... Смеюсь
    26-Jun-2017 22:11 (after 35 minutes)
  5. Longevity:
    3 years 8 months
    Posts:
    5
    Gender:
    Unknown
    Благодарю вас.
    20-Aug-2017 17:58 (after 1 month 23 days)
  6. Longevity:
    3 years 1 month
    Posts:
    1
    Gender:
    Unknown
    Конг: Остров черепа / Kong: Skull Island (2017) BDRip 1080p | 60 fps
    Фильм огонь )))) да Всем Спаси6о 3а скорость ))))
    13-Mar-2018 15:30 (after 6 months 23 days)


You cannot post new topics in this forum
You cannot reply to topics in this forum
You cannot edit your posts in this forum
You cannot delete your posts in this forum
You cannot vote in polls in this forum
You cannot attach files in this forum
You cannot download files in this forum