1. Longevity:
    7 years
    Posts:
    2413
    Gender:
    Male
    «The most powerful legend of all is back in a new adventure» Информация
    Название: Конан-разрушитель
    Оригинальное название: Conan the Destroyer
    Год выхода: 1984
    Жанр: фэнтези, приключения, боевик
    Режиссер: Ричард Флайшер
    Сценарий: Стэнли Манн, Роберт И. Говард, Рой Томас
    Продюсер: Раффаэлла Де Лаурентис, Эдвард Р. Прессман ...
    В ролях: Арнольд Шварценеггер, Грейс Джонс, Уилт Чемберлен, Мако, Трейси Уолтер, Сара Дуглас, Оливия д’Або, Пэт Роуч, Джефф Кори, Свен-Оле Торсен

    Сюжет:
    Идеальная картина в жанре фэнтэзи с мечами, волшебниками и колдунами. Сюжет очень прост. Сексапильная королева нанимает Конана сопровождать юную принцессу в далекий замок, где находится драгоценный камень, способный высвободить могущественные и таинственные силы.
    Коварная королева приказала своему воину убить Конана, когда задание будет выполнено, и вернуть домой принцессу, не нарушив ее девственности, дабы можно было принести ее в жертву. В пути группа сходится с чернокожей и взрывной воительницей. Длинноногая дикарка способна одна уложить множество врагов.
    Одно приключение сменяет другое. Съемки, схватки, поединки, трюки поражают воображение. Великолепно воссоздается атмосфера приключений в неизвестные времена, в неизвестно каком измерении…

    Страна: США
    Продолжительность: 01:41:16

    Файл
    Кодек: MPEG4/ISO/AVC/H.264
    Формат: MKV
    Качество: BDRip 720p | 60 fps
    Видео: 1280 x 546 (2.344) | 59.940 fps | 10.0 Мбит/сек
    Аудио 01: AC3 | 5.1 | 48 kHz | 640 kbps | 16 bit | Многоголосый - Карусель |
    Аудио 02: AC3 | 5.1 | 48 kHz | 640 kbps | 16 bit | Авторский - Сербин |
    Аудио 03: AC3 | 5.1 | 48 kHz | 640 kbps | 16 bit | Авторский - Гаврилов |
    Аудио 04: AC3 | 5.1 | 48 kHz | 640 kbps | 16 bit | English |

    MedifInfo

    Видео
    Идентификатор : 1
    Формат : AVC
    Формат/Информация : Advanced Video Codec
    Профиль формата : [email protected]
    Параметр CABAC формата : Да
    Параметр ReFrames формата : 3 кадра
    Идентификатор кодека : V_MPEG4/ISO/AVC
    Продолжительность : 1 ч. 41 м.
    Вид битрейта : Переменный
    Битрейт : 9735 Кбит/сек
    Максимальный битрейт : 10000 Кбит/сек
    Ширина : 1280 пикселей
    Высота : 546 пикселей
    Соотношение сторон : 2,35:1
    Режим частоты кадров : Постоянный
    Частота кадров : 59,880 кадров/сек
    Частота кадров в оригинале : 59,940 кадров/сек
    Стандарт вещания : PAL
    Цветовое пространство : YUV
    Субдискретизация насыщенности : 4:2:0
    Битовая глубина : 8 бит
    Тип развёртки : Прогрессивная
    Бит/(Пиксели*Кадры) : 0.233
    Размер потока : 6,89 Гбайт (78%)
    Заголовок : www.60-fps.org
    Язык : English
    Default : Да
    Forced : Нет
    Основные цвета : BT.601 NTSC
    Характеристики трансфера : BT.601
    Коэффициенты матрицы : BT.601
    colour_range : Limited
    Аудио #1
    Идентификатор : 2
    Формат : AC-3
    Формат/Информация : Audio Coding 3
    Расширение режима : CM (complete main)
    Параметр Endianness формата : Big
    Идентификатор кодека : A_AC3
    Продолжительность : 1 ч. 41 м.
    Вид битрейта : Постоянный
    Битрейт : 640 Кбит/сек
    Каналы : 6 каналов
    Расположение каналов : Front: L C R, Side: L R, LFE
    Частота : 48,0 КГц
    Битовая глубина : 16 бит
    Метод сжатия : С потерями
    Размер потока : 464 Мбайт (5%)
    Заголовок : Многоголосый - Карусель
    Язык : Russian
    Default : Да
    Forced : Нет
    Аудио #2
    Идентификатор : 3
    Формат : AC-3
    Формат/Информация : Audio Coding 3
    Расширение режима : CM (complete main)
    Параметр Endianness формата : Big
    Идентификатор кодека : A_AC3
    Продолжительность : 1 ч. 41 м.
    Вид битрейта : Постоянный
    Битрейт : 640 Кбит/сек
    Каналы : 6 каналов
    Расположение каналов : Front: L C R, Side: L R, LFE
    Частота : 48,0 КГц
    Битовая глубина : 16 бит
    Метод сжатия : С потерями
    Размер потока : 464 Мбайт (5%)
    Заголовок : Авторский - Сербин
    Язык : Russian
    Default : Нет
    Forced : Нет
    Аудио #3
    Идентификатор : 4
    Формат : AC-3
    Формат/Информация : Audio Coding 3
    Расширение режима : CM (complete main)
    Параметр Endianness формата : Big
    Идентификатор кодека : A_AC3
    Продолжительность : 1 ч. 41 м.
    Вид битрейта : Постоянный
    Битрейт : 640 Кбит/сек
    Каналы : 6 каналов
    Расположение каналов : Front: L C R, Side: L R, LFE
    Частота : 48,0 КГц
    Битовая глубина : 16 бит
    Метод сжатия : С потерями
    Размер потока : 464 Мбайт (5%)
    Заголовок : Авторский - Гаврилов
    Язык : Russian
    Default : Нет
    Forced : Нет
    Аудио #4
    Идентификатор : 5
    Формат : AC-3
    Формат/Информация : Audio Coding 3
    Расширение режима : CM (complete main)
    Параметр Endianness формата : Big
    Идентификатор кодека : A_AC3
    Продолжительность : 1 ч. 41 м.
    Вид битрейта : Постоянный
    Битрейт : 640 Кбит/сек
    Каналы : 6 каналов
    Расположение каналов : Front: L C R, Side: L R, LFE
    Частота : 48,0 КГц
    Битовая глубина : 16 бит
    Метод сжатия : С потерями
    Размер потока : 464 Мбайт (5%)
    Заголовок : English
    Язык : English
    Default : Нет
    Forced : Нет

    Release was prepared by 60-fps.org



You cannot post new topics in this forum
You cannot reply to topics in this forum
You cannot edit your posts in this forum
You cannot delete your posts in this forum
You cannot vote in polls in this forum
You cannot attach files in this forum
You cannot download files in this forum